  0
SECTION
  2
HEADER
  9
$ACADVER
  1
AC1024
  9
$ACADMAINTVER
 70
    63
  9
$DWGCODEPAGE
  3
ANSI_1252
  9
$INSBASE
 10
0.0
 20
0.0
 30
0.0
  9
$EXTMIN
 10
-213.655708729658
 20
-428.3558425814923
 30
-0.00000001
  9
$EXTMAX
 10
1465.713895812481
 20
1066.250426547499
 30
0.00000001
  9
$LIMMIN
 10
0.0
 20
0.0
  9
$LIMMAX
 10
12.0
 20
9.0
  9
$ORTHOMODE
 70
     0
  9
$REGENMODE
 70
     1
  9
$FILLMODE
 70
     1
  9
$QTEXTMODE
 70
     0
  9
$MIRRTEXT
 70
     0
  9
$LTSCALE
 40
1.0
  9
$ATTMODE
 70
     1
  9
$TEXTSIZE
 40
0.2
  9
$TRACEWID
 40
0.05
  9
$TEXTSTYLE
  7
Standard
  9
$CLAYER
  8
0
  9
$CELTYPE
  6
ByLayer
  9
$CECOLOR
 62
   256
  9
$CELTSCALE
 40
1.0
  9
$DISPSILH
 70
     0
  9
$DIMSCALE
 40
1.0
  9
$DIMASZ
 40
0.18
  9
$DIMEXO
 40
0.0625
  9
$DIMDLI
 40
0.38
  9
$DIMRND
 40
0.0
  9
$DIMDLE
 40
0.0
  9
$DIMEXE
 40
0.18
  9
$DIMTP
 40
0.0
  9
$DIMTM
 40
0.0
  9
$DIMTXT
 40
0.18
  9
$DIMCEN
 40
0.09
  9
$DIMTSZ
 40
0.0
  9
$DIMTOL
 70
     0
  9
$DIMLIM
 70
     0
  9
$DIMTIH
 70
     1
  9
$DIMTOH
 70
     1
  9
$DIMSE1
 70
     0
  9
$DIMSE2
 70
     0
  9
$DIMTAD
 70
     0
  9
$DIMZIN
 70
     0
  9
$DIMBLK
  1

  9
$DIMASO
 70
     1
  9
$DIMSHO
 70
     1
  9
$DIMPOST
  1

  9
$DIMAPOST
  1

  9
$DIMALT
 70
     0
  9
$DIMALTD
 70
     2
  9
$DIMALTF
 40
25.4
  9
$DIMLFAC
 40
1.0
  9
$DIMTOFL
 70
     0
  9
$DIMTVP
 40
0.0
  9
$DIMTIX
 70
     0
  9
$DIMSOXD
 70
     0
  9
$DIMSAH
 70
     0
  9
$DIMBLK1
  1

  9
$DIMBLK2
  1

  9
$DIMSTYLE
  2
Standard
  9
$DIMCLRD
 70
     0
  9
$DIMCLRE
 70
     0
  9
$DIMCLRT
 70
     0
  9
$DIMTFAC
 40
1.0
  9
$DIMGAP
 40
0.09
  9
$DIMJUST
 70
     0
  9
$DIMSD1
 70
     0
  9
$DIMSD2
 70
     0
  9
$DIMTOLJ
 70
     1
  9
$DIMTZIN
 70
     0
  9
$DIMALTZ
 70
     0
  9
$DIMALTTZ
 70
     0
  9
$DIMUPT
 70
     0
  9
$DIMDEC
 70
     4
  9
$DIMTDEC
 70
     4
  9
$DIMALTU
 70
     2
  9
$DIMALTTD
 70
     2
  9
$DIMTXSTY
  7
Standard
  9
$DIMAUNIT
 70
     0
  9
$DIMADEC
 70
     0
  9
$DIMALTRND
 40
0.0
  9
$DIMAZIN
 70
     0
  9
$DIMDSEP
 70
    46
  9
$DIMATFIT
 70
     3
  9
$DIMFRAC
 70
     0
  9
$DIMLDRBLK
  1

  9
$DIMLUNIT
 70
     2
  9
$DIMLWD
 70
    -2
  9
$DIMLWE
 70
    -2
  9
$DIMTMOVE
 70
     0
  9
$DIMFXL
 40
1.0
  9
$DIMFXLON
 70
     0
  9
$DIMJOGANG
 40
0.7853981633974483
  9
$DIMTFILL
 70
     0
  9
$DIMTFILLCLR
 70
     0
  9
$DIMARCSYM
 70
     0
  9
$DIMLTYPE
  6

  9
$DIMLTEX1
  6

  9
$DIMLTEX2
  6

  9
$DIMTXTDIRECTION
 70
     0
  9
$LUNITS
 70
     2
  9
$LUPREC
 70
     4
  9
$SKETCHINC
 40
0.1
  9
$FILLETRAD
 40
0.0
  9
$AUNITS
 70
     0
  9
$AUPREC
 70
     0
  9
$MENU
  1
.
  9
$ELEVATION
 40
0.0
  9
$PELEVATION
 40
0.0
  9
$THICKNESS
 40
0.0
  9
$LIMCHECK
 70
     0
  9
$CHAMFERA
 40
0.0
  9
$CHAMFERB
 40
0.0
  9
$CHAMFERC
 40
0.0
  9
$CHAMFERD
 40
0.0
  9
$SKPOLY
 70
     0
  9
$TDCREATE
 40
2455839.531211065
  9
$TDUCREATE
 40
2455839.447877732
  9
$TDUPDATE
 40
2455839.531211065
  9
$TDUUPDATE
 40
2455839.447877732
  9
$TDINDWG
 40
0.0000041319
  9
$TDUSRTIMER
 40
0.0000041319
  9
$USRTIMER
 70
     1
  9
$ANGBASE
 50
0.0
  9
$ANGDIR
 70
     0
  9
$PDMODE
 70
     0
  9
$PDSIZE
 40
0.0
  9
$PLINEWID
 40
0.0
  9
$SPLFRAME
 70
     0
  9
$SPLINETYPE
 70
     6
  9
$SPLINESEGS
 70
     8
  9
$HANDSEED
  5
132
  9
$SURFTAB1
 70
     6
  9
$SURFTAB2
 70
     6
  9
$SURFTYPE
 70
     6
  9
$SURFU
 70
     6
  9
$SURFV
 70
     6
  9
$UCSBASE
  2

  9
$UCSNAME
  2

  9
$UCSORG
 10
0.0
 20
0.0
 30
0.0
  9
$UCSXDIR
 10
1.0
 20
0.0
 30
0.0
  9
$UCSYDIR
 10
0.0
 20
1.0
 30
0.0
  9
$UCSORTHOREF
  2

  9
$UCSORTHOVIEW
 70
     0
  9
$UCSORGTOP
 10
0.0
 20
0.0
 30
0.0
  9
$UCSORGBOTTOM
 10
0.0
 20
0.0
 30
0.0
  9
$UCSORGLEFT
 10
0.0
 20
0.0
 30
0.0
  9
$UCSORGRIGHT
 10
0.0
 20
0.0
 30
0.0
  9
$UCSORGFRONT
 10
0.0
 20
0.0
 30
0.0
  9
$UCSORGBACK
 10
0.0
 20
0.0
 30
0.0
  9
$PUCSBASE
  2

  9
$PUCSNAME
  2

  9
$PUCSORG
 10
0.0
 20
0.0
 30
0.0
  9
$PUCSXDIR
 10
1.0
 20
0.0
 30
0.0
  9
$PUCSYDIR
 10
0.0
 20
1.0
 30
0.0
  9
$PUCSORTHOREF
  2

  9
$PUCSORTHOVIEW
 70
     0
  9
$PUCSORGTOP
 10
0.0
 20
0.0
 30
0.0
  9
$PUCSORGBOTTOM
 10
0.0
 20
0.0
 30
0.0
  9
$PUCSORGLEFT
 10
0.0
 20
0.0
 30
0.0
  9
$PUCSORGRIGHT
 10
0.0
 20
0.0
 30
0.0
  9
$PUCSORGFRONT
 10
0.0
 20
0.0
 30
0.0
  9
$PUCSORGBACK
 10
0.0
 20
0.0
 30
0.0
  9
$USERI1
 70
     0
  9
$USERI2
 70
     0
  9
$USERI3
 70
     0
  9
$USERI4
 70
     0
  9
$USERI5
 70
     0
  9
$USERR1
 40
0.0
  9
$USERR2
 40
0.0
  9
$USERR3
 40
0.0
  9
$USERR4
 40
0.0
  9
$USERR5
 40
0.0
  9
$WORLDVIEW
 70
     1
  9
$SHADEDGE
 70
     3
  9
$SHADEDIF
 70
    70
  9
$TILEMODE
 70
     1
  9
$MAXACTVP
 70
    64
  9
$PINSBASE
 10
0.0
 20
0.0
 30
0.0
  9
$PLIMCHECK
 70
     0
  9
$PEXTMIN
 10
1.000000000000000E+20
 20
1.000000000000000E+20
 30
1.000000000000000E+20
  9
$PEXTMAX
 10
-1.000000000000000E+20
 20
-1.000000000000000E+20
 30
-1.000000000000000E+20
  9
$PLIMMIN
 10
0.0
 20
0.0
  9
$PLIMMAX
 10
12.0
 20
9.0
  9
$UNITMODE
 70
     0
  9
$VISRETAIN
 70
     1
  9
$PLINEGEN
 70
     0
  9
$PSLTSCALE
 70
     0
  9
$TREEDEPTH
 70
  3020
  9
$CMLSTYLE
  2
Standard
  9
$CMLJUST
 70
     0
  9
$CMLSCALE
 40
1.0
  9
$PROXYGRAPHICS
 70
     1
  9
$MEASUREMENT
 70
     1
  9
$CELWEIGHT
370
    -1
  9
$ENDCAPS
280
     0
  9
$JOINSTYLE
280
     0
  9
$LWDISPLAY
290
     0
  9
$INSUNITS
 70
     4
  9
$HYPERLINKBASE
  1

  9
$STYLESHEET
  1

  9
$XEDIT
290
     1
  9
$CEPSNTYPE
380
     0
  9
$PSTYLEMODE
290
     1
  9
$FINGERPRINTGUID
  2
{E6EE9B56-A9CF-4C4C-85D8-442727EE8088}
  9
$VERSIONGUID
  2
{637F7007-6BF8-46B9-ADF2-9C19EA603A51}
  9
$EXTNAMES
290
     1
  9
$PSVPSCALE
 40
0.0
  9
$OLESTARTUP
290
     0
  9
$SORTENTS
280
   127
  9
$INDEXCTL
280
     0
  9
$HIDETEXT
280
     1
  9
$XCLIPFRAME
280
     2
  9
$HALOGAP
280
     0
  9
$OBSCOLOR
 70
   257
  9
$OBSLTYPE
280
     0
  9
$INTERSECTIONDISPLAY
280
     0
  9
$INTERSECTIONCOLOR
 70
   257
  9
$DIMASSOC
280
     2
  9
$PROJECTNAME
  1

  9
$CAMERADISPLAY
290
     0
  9
$LENSLENGTH
 40
50.0
  9
$CAMERAHEIGHT
 40
0.0
  9
$STEPSPERSEC
 40
2.0
  9
$STEPSIZE
 40
6.0
  9
$3DDWFPREC
 40
2.0
  9
$PSOLWIDTH
 40
0.25
  9
$PSOLHEIGHT
 40
4.0
  9
$LOFTANG1
 40
1.570796326794896
  9
$LOFTANG2
 40
1.570796326794896
  9
$LOFTMAG1
 40
0.0
  9
$LOFTMAG2
 40
0.0
  9
$LOFTPARAM
 70
     7
  9
$LOFTNORMALS
280
     1
  9
$LATITUDE
 40
0.0
  9
$LONGITUDE
 40
0.0
  9
$NORTHDIRECTION
 40
0.0
  9
$TIMEZONE
 70
     0
  9
$LIGHTGLYPHDISPLAY
280
     1
  9
$TILEMODELIGHTSYNCH
280
     1
  9
$CMATERIAL
347
11
  9
$SOLIDHIST
280
     0
  9
$SHOWHIST
280
     1
  9
$DWFFRAME
280
     2
  9
$DGNFRAME
280
     0
  9
$REALWORLDSCALE
290
     1
  9
$INTERFERECOLOR
 62
     1
  9
$INTERFEREOBJVS
345
33
  9
$INTERFEREVPVS
346
30
  9
$CSHADOW
280
     0
  9
$SHADOWPLANELOCATION
 40
0.0
  0
ENDSEC
  0
SECTION
  2
CLASSES
  0
CLASS
  1
ACDBDICTIONARYWDFLT
  2
AcDbDictionaryWithDefault
  3
ObjectDBX Classes
 90
        0
 91
        1
280
     0
281
     0
  0
CLASS
  1
MATERIAL
  2
AcDbMaterial
  3
ObjectDBX Classes
 90
     1153
 91
        3
280
     0
281
     0
  0
CLASS
  1
VISUALSTYLE
  2
AcDbVisualStyle
  3
ObjectDBX Classes
 90
     4095
 91
       24
280
     0
281
     0
  0
CLASS
  1
SCALE
  2
AcDbScale
  3
ObjectDBX Classes
 90
     1153
 91
       17
280
     0
281
     0
  0
CLASS
  1
TABLESTYLE
  2
AcDbTableStyle
  3
ObjectDBX Classes
 90
     4095
 91
        1
280
     0
281
     0
  0
CLASS
  1
MLEADERSTYLE
  2
AcDbMLeaderStyle
  3
ACDB_MLEADERSTYLE_CLASS
 90
     4095
 91
        1
280
     0
281
     0
  0
CLASS
  1
RASTERVARIABLES
  2
AcDbRasterVariables
  3
ISM
 90
        0
 91
        1
280
     0
281
     0
  0
CLASS
  1
DICTIONARYVAR
  2
AcDbDictionaryVar
  3
ObjectDBX Classes
 90
        0
 91
        3
280
     0
281
     0
  0
CLASS
  1
CELLSTYLEMAP
  2
AcDbCellStyleMap
  3
ObjectDBX Classes
 90
     1152
 91
        2
280
     0
281
     0
  0
CLASS
  1
SORTENTSTABLE
  2
AcDbSortentsTable
  3
ObjectDBX Classes
 90
        0
 91
        1
280
     0
281
     0
  0
CLASS
  1
SUN
  2
AcDbSun
  3
SCENEOE
 90
     1153
 91
        1
280
     0
281
     0
  0
ENDSEC
  0
SECTION
  2
TABLES
  0
TABLE
  2
VPORT
  5
8
330
0
100
AcDbSymbolTable
 70
     1
  0
VPORT
  5
57
330
8
100
AcDbSymbolTableRecord
100
AcDbViewportTableRecord
  2
*Active
 70
     0
 10
0.0
 20
0.0
 11
1.0
 21
1.0
 12
626.0290935414113
 22
318.9472919830036
 13
0.0
 23
0.0
 14
1.0
 24
1.0
 15
0.0
 25
0.0
 16
0.0
 26
0.0
 36
1.0
 17
0.0
 27
0.0
 37
0.0
 40
1494.606269128992
 41
1.123620072543132
 42
50.0
 43
0.0
 44
0.0
 50
0.0
 51
0.0
 71
     0
 72
  1000
 73
     1
 74
     1
 75
     0
 76
     0
 77
     0
 78
     0
281
     0
 65
     1
110
0.0
120
0.0
130
0.0
111
1.0
121
0.0
131
0.0
112
0.0
122
1.0
132
0.0
 79
     0
146
0.0
 60
     3
 61
     5
292
     1
282
     1
141
0.0
142
0.0
 63
   250
421
  3355443
361
12C
  0
ENDTAB
  0
TABLE
  2
LTYPE
  5
5
330
0
100
AcDbSymbolTable
 70
     2
  0
LTYPE
  5
5B
330
5
100
AcDbSymbolTableRecord
100
AcDbLinetypeTableRecord
  2
ByBlock
 70
     0
  3

 72
    65
 73
     0
 40
0.0
  0
LTYPE
  5
5C
330
5
100
AcDbSymbolTableRecord
100
AcDbLinetypeTableRecord
  2
ByLayer
 70
     0
  3

 72
    65
 73
     0
 40
0.0
  0
LTYPE
  5
5D
330
5
100
AcDbSymbolTableRecord
100
AcDbLinetypeTableRecord
  2
Continuous
 70
     0
  3
Solid line
 72
    65
 73
     0
 40
0.0
  0
LTYPE
  5
AA
330
5
100
AcDbSymbolTableRecord
100
AcDbLinetypeTableRecord
  2
Aligning Line
 70
     0
  3

 72
    65
 73
     2
 40
63.5
 49
31.75
 74
     0
 49
-31.75
 74
     0
  0
ENDTAB
  0
TABLE
  2
LAYER
  5
2
330
0
100
AcDbSymbolTable
 70
     7
  0
LAYER
  5
54
330
2
100
AcDbSymbolTableRecord
100
AcDbLayerTableRecord
  2
0
 70
     0
 62
     7
  6
Continuous
370
    -3
390
F
347
21
  0
LAYER
  5
A1
330
2
100
AcDbSymbolTableRecord
100
AcDbLayerTableRecord
  2
I-DETLFUM
 70
     0
 62
     2
  6
Continuous
370
    70
390
F
347
21
  0
LAYER
  5
AB
330
2
100
AcDbSymbolTableRecord
100
AcDbLayerTableRecord
  2
G-----NPP
 70
     0
 62
     5
  6
Aligning Line
370
    30
390
F
347
21
  0
LAYER
  5
B1
330
2
100
AcDbSymbolTableRecord
100
AcDbLayerTableRecord
  2
A-----DIP
 70
     0
 62
     1
  6
Continuous
370
    30
390
F
347
21
  0
LAYER
  5
B8
330
2
100
AcDbSymbolTableRecord
100
AcDbLayerTableRecord
  2
A-----DIP-10
 70
     0
 62
     1
  6
Continuous
370
    30
390
F
347
21
  0
LAYER
  5
C8
330
2
100
AcDbSymbolTableRecord
100
AcDbLayerTableRecord
  2
Defpoints
 70
     0
 62
     7
  6
Continuous
290
     0
370
    -3
390
F
347
21
  0
ENDTAB
  0
TABLE
  2
STYLE
  5
3
330
0
100
AcDbSymbolTable
 70
     3
  0
STYLE
  5
55
330
3
100
AcDbSymbolTableRecord
100
AcDbTextStyleTableRecord
  2
Standard
 70
     0
 40
0.0
 41
1.0
 50
0.0
 71
     0
 42
0.2
  3
txt
  4

  0
STYLE
  5
5A
330
3
100
AcDbSymbolTableRecord
100
AcDbTextStyleTableRecord
  2
Annotative
 70
     0
 40
0.0
 41
1.0
 50
0.0
 71
     0
 42
0.2
  3
txt
  4

1001
AcadAnnotative
1000
AnnotativeData
1002
{
1070
     1
1070
     1
1002
}
  0
STYLE
  5
C3
330
3
100
AcDbSymbolTableRecord
100
AcDbTextStyleTableRecord
  2
Revit_Arial
 70
     0
 40
23.42037799401198
 41
1.0
 50
0.0
 71
     0
 42
0.2
  3
arial.ttf
  4

1001
ACAD
1000
Arial
1071
       34
  0
ENDTAB
  0
TABLE
  2
VIEW
  5
6
330
0
100
AcDbSymbolTable
 70
     0
  0
ENDTAB
  0
TABLE
  2
UCS
  5
7
330
0
100
AcDbSymbolTable
 70
     0
  0
ENDTAB
  0
TABLE
  2
APPID
  5
9
330
0
100
AcDbSymbolTable
 70
     3
  0
APPID
  5
56
330
9
100
AcDbSymbolTableRecord
100
AcDbRegAppTableRecord
  2
ACAD
 70
     0
  0
APPID
  5
5E
330
9
100
AcDbSymbolTableRecord
100
AcDbRegAppTableRecord
  2
AcadAnnotative
 70
     0
  0
APPID
  5
74
330
9
100
AcDbSymbolTableRecord
100
AcDbRegAppTableRecord
  2
REVIT
 70
     0
  0
ENDTAB
  0
TABLE
  2
DIMSTYLE
  5
A
330
0
100
AcDbSymbolTable
 70
     4
100
AcDbDimStyleTable
 71
     2
340
F1
340
B3
  0
DIMSTYLE
105
58
330
A
100
AcDbSymbolTableRecord
100
AcDbDimStyleTableRecord
  2
Standard
 70
     0
340
55
  0
DIMSTYLE
105
59
330
A
100
AcDbSymbolTableRecord
100
AcDbDimStyleTableRecord
  2
Annotative
 70
     0
340
55
1001
AcadAnnotative
1000
AnnotativeData
1002
{
1070
     1
1070
     1
1002
}
  0
DIMSTYLE
105
B3
102
{ACAD_REACTORS
330
C6
102
}
330
A
100
AcDbSymbolTableRecord
100
AcDbDimStyleTableRecord
  2
Linear
 70
     0
 40
304.8
 41
0.1041666666666666
 42
0.0001708770778653
 44
0.078125
 45
0.0000328083989501
 69
     1
 73
     0
 74
     0
 77
     1
 90
     2
140
0.078125
145
1.0
147
0.0260416666666667
148
0.0000328083989501
172
     1
173
     1
174
     1
179
     2
271
     2
272
     2
340
C3
343
B4
344
B4
  0
DIMSTYLE
105
F1
102
{ACAD_REACTORS
330
FE
102
}
330
A
100
AcDbSymbolTableRecord
100
AcDbDimStyleTableRecord
  2
Linear_1
 70
     0
 40
304.8
 41
1.041666666666666
 42
0.0017087707786527
 44
0.78125
 45
0.0000328083989501
 69
     1
 73
     0
 74
     0
 77
     1
 90
     2
140
0.78125
145
1.0
147
0.2604166666666666
148
0.0000328083989501
172
     1
173
     1
174
     1
179
     2
271
     2
272
     2
340
C3
343
B4
344
B4
  0
ENDTAB
  0
TABLE
  2
BLOCK_RECORD
  5
1
330
0
100
AcDbSymbolTable
 70
    10
  0
BLOCK_RECORD
  5
6C
102
{ACAD_XDICTIONARY
360
129
102
}
330
1
100
AcDbSymbolTableRecord
100
AcDbBlockTableRecord
  2
*Model_Space
340
6F
 70
     0
280
     1
281
     0
  0
BLOCK_RECORD
  5
68
330
1
100
AcDbSymbolTableRecord
100
AcDbBlockTableRecord
  2
*Paper_Space
340
6B
 70
     0
280
     1
281
     0
  0
BLOCK_RECORD
  5
70
330
1
100
AcDbSymbolTableRecord
100
AcDbBlockTableRecord
  2
*Paper_Space0
340
73
 70
     0
280
     1
281
     0
  0
BLOCK_RECORD
  5
B4
330
1
100
AcDbSymbolTableRecord
100
AcDbBlockTableRecord
  2
_Oblique
340
0
102
{BLKREFS
331
CF
331
D0
331
E9
331
EA
331
105
331
106
331
11F
331
120
102
}
 70
     0
280
     1
281
     0
  0
BLOCK_RECORD
  5
C9
330
1
100
AcDbSymbolTableRecord
100
AcDbBlockTableRecord
  2
DIMBLOCK1-Level 1
340
0
 70
     0
280
     1
281
     0
  0
BLOCK_RECORD
  5
E3
330
1
100
AcDbSymbolTableRecord
100
AcDbBlockTableRecord
  2
DIMBLOCK2-Level 1
340
0
 70
     0
280
     1
281
     0
  0
BLOCK_RECORD
  5
FF
330
1
100
AcDbSymbolTableRecord
100
AcDbBlockTableRecord
  2
DIMBLOCK3-Level 1
340
0
 70
     0
280
     1
281
     0
  0
BLOCK_RECORD
  5
119
330
1
100
AcDbSymbolTableRecord
100
AcDbBlockTableRecord
  2
DIMBLOCK4-Level 1
340
0
 70
     0
280
     1
281
     0
  0
ENDTAB
  0
ENDSEC
  0
SECTION
  2
BLOCKS
  0
BLOCK
  5
6D
330
6C
100
AcDbEntity
  8
0
100
AcDbBlockBegin
  2
*Model_Space
 70
     0
 10
0.0
 20
0.0
 30
0.0
  3
*Model_Space
  1

  0
ENDBLK
  5
6E
330
6C
100
AcDbEntity
  8
0
100
AcDbBlockEnd
  0
BLOCK
  5
69
330
68
100
AcDbEntity
 67
     1
  8
0
100
AcDbBlockBegin
  2
*Paper_Space
 70
     0
 10
0.0
 20
0.0
 30
0.0
  3
*Paper_Space
  1

  0
ENDBLK
  5
6A
330
68
100
AcDbEntity
 67
     1
  8
0
100
AcDbBlockEnd
  0
BLOCK
  5
71
330
70
100
AcDbEntity
 67
     1
  8
0
100
AcDbBlockBegin
  2
*Paper_Space0
 70
     0
 10
0.0
 20
0.0
 30
0.0
  3
*Paper_Space0
  1

  0
ENDBLK
  5
72
330
70
100
AcDbEntity
 67
     1
  8
0
100
AcDbBlockEnd
  0
BLOCK
  5
B6
330
B4
100
AcDbEntity
  8
0
100
AcDbBlockBegin
  2
_Oblique
 70
     0
 10
0.0
 20
0.0
 30
0.0
  3
_Oblique
  1

  0
LINE
  5
B5
330
B4
100
AcDbEntity
  8
0
  6
ByBlock
 62
     0
370
    -2
100
AcDbLine
 10
-0.5
 20
-0.5
 30
0.0
 11
0.5
 21
0.5
 31
0.0
  0
ENDBLK
  5
B7
330
B4
100
AcDbEntity
  8
0
100
AcDbBlockEnd
  0
BLOCK
  5
C4
330
C9
100
AcDbEntity
  8
0
100
AcDbBlockBegin
  2
DIMBLOCK1-Level 1
 70
     0
 10
0.0
 20
0.0
 30
0.0
  3
DIMBLOCK1-Level 1
  1

  0
LINE
  5
B9
330
C9
100
AcDbEntity
  8
A-----DIP-10
100
AcDbLine
 10
1441.901395812481
 20
533.4000000000002
 30
0.0
 11
1441.901395812481
 21
-228.5999999999999
 31
0.0
1001
REVIT
1002
{
1070
     2
1000
-2000260
1002
}
  0
LINE
  5
BA
330
C9
100
AcDbEntity
  8
A-----DIP-10
370
    50
100
AcDbLine
 10
1441.901395812481
 20
-228.5999999999999
 30
0.0
 11
1426.02639581248
 21
-212.7249999999998
 31
0.0
1001
REVIT
1002
{
1070
     2
1000
-2000260
1002
}
  0
LINE
  5
BB
330
C9
100
AcDbEntity
  8
A-----DIP-10
370
    50
100
AcDbLine
 10
1441.901395812481
 20
-228.5999999999999
 30
0.0
 11
1457.776395812481
 21
-244.4749999999999
 31
0.0
1001
REVIT
1002
{
1070
     2
1000
-2000260
1002
}
  0
LINE
  5
BC
330
C9
100
AcDbEntity
  8
A-----DIP-10
100
AcDbLine
 10
906.110753344318
 20
-228.5999999999999
 30
0.0
 11
1465.713895812481
 21
-228.5999999999999
 31
0.0
1001
REVIT
1002
{
1070
     2
1000
-2000260
1002
}
  0
LINE
  5
BD
330
C9
100
AcDbEntity
  8
A-----DIP-10
100
AcDbLine
 10
1441.901395812481
 20
-228.5999999999998
 30
0.0
 11
906.110753344318
 21
-228.5999999999998
 31
0.0
1001
REVIT
1002
{
1070
     2
1000
-2000260
1002
}
  0
LINE
  5
BE
330
C9
100
AcDbEntity
  8
A-----DIP-10
370
    50
100
AcDbLine
 10
1441.901395812481
 20
533.4000000000002
 30
0.0
 11
1426.02639581248
 21
549.2750000000001
 31
0.0
1001
REVIT
1002
{
1070
     2
1000
-2000260
1002
}
  0
LINE
  5
BF
330
C9
100
AcDbEntity
  8
A-----DIP-10
370
    50
100
AcDbLine
 10
1441.901395812481
 20
533.4000000000002
 30
0.0
 11
1457.776395812481
 21
517.5250000000001
 31
0.0
1001
REVIT
1002
{
1070
     2
1000
-2000260
1002
}
  0
LINE
  5
C0
330
C9
100
AcDbEntity
  8
A-----DIP-10
100
AcDbLine
 10
906.110753344318
 20
533.4000000000002
 30
0.0
 11
1465.713895812481
 21
533.4000000000002
 31
0.0
1001
REVIT
1002
{
1070
     2
1000
-2000260
1002
}
  0
LINE
  5
C1
330
C9
100
AcDbEntity
  8
A-----DIP-10
100
AcDbLine
 10
1441.901395812481
 20
533.4000000000001
 30
0.0
 11
906.110753344318
 21
533.4000000000001
 31
0.0
1001
REVIT
1002
{
1070
     2
1000
-2000260
1002
}
  0
MTEXT
  5
C2
330
C9
100
AcDbEntity
  8
A-----DIP-10
 62
     0
100
AcDbMText
 10
1403.582940895392
 20
41.76346153846166
 30
0.0
 40
23.42037799401198
 41
265.5276923076923
 46
0.0
 71
     1
 72
     1
  1
\fArial|b0|i0|c0|p34|;Width = 762.00
 11
0.0
 21
1.0
 31
0.0
 73
     2
 44
0.9385317878468562
 90
        3
 63
     7
 45
1.25
441
        0
1001
REVIT
1002
{
1070
     2
1000
-2000260
1002
}
  0
ENDBLK
  5
C5
330
C9
100
AcDbEntity
  8
0
100
AcDbBlockEnd
  0
BLOCK
  5
E0
330
E3
100
AcDbEntity
  8
0
100
AcDbBlockBegin
  2
DIMBLOCK2-Level 1
 70
     0
 10
0.0
 20
0.0
 30
0.0
  3
DIMBLOCK2-Level 1
  1

  0
LINE
  5
D6
330
E3
100
AcDbEntity
  8
A-----DIP-10
100
AcDbLine
 10
3.733630289532363
 20
1027.931971630411
 30
0.0
 11
765.7336302895335
 21
1027.931971630411
 31
0.0
1001
REVIT
1002
{
1070
     2
1000
-2000260
1002
}
  0
LINE
  5
D7
330
E3
100
AcDbEntity
  8
A-----DIP-10
370
    50
100
AcDbLine
 10
765.7336302895335
 20
1027.931971630411
 30
0.0
 11
749.8586302895334
 21
1012.056971630411
 31
0.0
1001
REVIT
1002
{
1070
     2
1000
-2000260
1002
}
  0
LINE
  5
D8
330
E3
100
AcDbEntity
  8
A-----DIP-10
370
    50
100
AcDbLine
 10
765.7336302895335
 20
1027.931971630411
 30
0.0
 11
781.6086302895334
 21
1043.806971630411
 31
0.0
1001
REVIT
1002
{
1070
     2
1000
-2000260
1002
}
  0
LINE
  5
D9
330
E3
100
AcDbEntity
  8
A-----DIP-10
100
AcDbLine
 10
765.7336302895335
 20
950.1706574904639
 30
0.0
 11
765.7336302895335
 21
1051.744471630411
 31
0.0
1001
REVIT
1002
{
1070
     2
1000
-2000260
1002
}
  0
LINE
  5
DA
330
E3
100
AcDbEntity
  8
A-----DIP-10
100
AcDbLine
 10
765.7336302895335
 20
1027.931971630411
 30
0.0
 11
765.7336302895335
 21
950.1706574904639
 31
0.0
1001
REVIT
1002
{
1070
     2
1000
-2000260
1002
}
  0
LINE
  5
DB
330
E3
100
AcDbEntity
  8
A-----DIP-10
370
    50
100
AcDbLine
 10
3.733630289532363
 20
1027.931971630411
 30
0.0
 11
-12.14136971046765
 21
1012.056971630411
 31
0.0
1001
REVIT
1002
{
1070
     2
1000
-2000260
1002
}
  0
LINE
  5
DC
330
E3
100
AcDbEntity
  8
A-----DIP-10
370
    50
100
AcDbLine
 10
3.733630289532363
 20
1027.931971630411
 30
0.0
 11
19.60863028953237
 21
1043.806971630411
 31
0.0
1001
REVIT
1002
{
1070
     2
1000
-2000260
1002
}
  0
LINE
  5
DD
330
E3
100
AcDbEntity
  8
A-----DIP-10
100
AcDbLine
 10
3.733630289532363
 20
950.170657490465
 30
0.0
 11
3.733630289532363
 21
1051.744471630411
 31
0.0
1001
REVIT
1002
{
1070
     2
1000
-2000260
1002
}
  0
LINE
  5
DE
330
E3
100
AcDbEntity
  8
A-----DIP-10
100
AcDbLine
 10
3.733630289532363
 20
1027.931971630411
 30
0.0
 11
3.733630289532363
 21
950.170657490465
 31
0.0
1001
REVIT
1002
{
1070
     2
1000
-2000260
1002
}
  0
MTEXT
  5
DF
330
E3
100
AcDbEntity
  8
A-----DIP-10
 62
     0
100
AcDbMText
 10
267.1365149049175
 20
1066.250426547499
 30
0.0
 40
23.42037799401198
 41
282.233076923077
 46
0.0
 71
     1
 72
     1
  1
\fArial|b0|i0|c0|p34|;Length = 762.00
 73
     2
 44
0.9385317878468562
 90
        3
 63
     7
 45
1.25
441
        0
1001
REVIT
1002
{
1070
     2
1000
-2000260
1002
}
  0
ENDBLK
  5
E1
330
E3
100
AcDbEntity
  8
0
100
AcDbBlockEnd
  0
BLOCK
  5
FC
330
FF
100
AcDbEntity
  8
0
100
AcDbBlockBegin
  2
DIMBLOCK3-Level 1
 70
     0
 10
0.0
 20
0.0
 30
0.0
  3
DIMBLOCK3-Level 1
  1

  0
LINE
  5
F2
330
FF
100
AcDbEntity
  8
A-----DIP-10
100
AcDbLine
 10
3.733630289532227
 20
818.3182490105842
 30
0.0
 11
384.7336302895336
 21
818.3182490105842
 31
0.0
1001
REVIT
1002
{
1070
     2
1000
-2000260
1002
}
  0
LINE
  5
F3
330
FF
100
AcDbEntity
  8
A-----DIP-10
370
    50
100
AcDbLine
 10
384.7336302895336
 20
818.3182490105842
 30
0.0
 11
368.8586302895335
 21
802.4432490105843
 31
0.0
1001
REVIT
1002
{
1070
     2
1000
-2000260
1002
}
  0
LINE
  5
F4
330
FF
100
AcDbEntity
  8
A-----DIP-10
370
    50
100
AcDbLine
 10
384.7336302895336
 20
818.3182490105842
 30
0.0
 11
400.6086302895337
 21
834.1932490105843
 31
0.0
1001
REVIT
1002
{
1070
     2
1000
-2000260
1002
}
  0
LINE
  5
F5
330
FF
100
AcDbEntity
  8
A-----DIP-10
100
AcDbLine
 10
384.7336302895336
 20
824.8938893132574
 30
0.0
 11
384.7336302895336
 21
794.5057490105843
 31
0.0
1001
REVIT
1002
{
1070
     2
1000
-2000260
1002
}
  0
LINE
  5
F6
330
FF
100
AcDbEntity
  8
A-----DIP-10
100
AcDbLine
 10
384.7336302895336
 20
818.3182490105842
 30
0.0
 11
384.7336302895336
 21
884.0746520373135
 31
0.0
1001
REVIT
1002
{
1070
     2
1000
-2000260
1002
}
  0
LINE
  5
F7
330
FF
100
AcDbEntity
  8
A-----DIP-10
370
    50
100
AcDbLine
 10
3.733630289532227
 20
818.3182490105842
 30
0.0
 11
-12.14136971046778
 21
802.4432490105843
 31
0.0
1001
REVIT
1002
{
1070
     2
1000
-2000260
1002
}
  0
LINE
  5
F8
330
FF
100
AcDbEntity
  8
A-----DIP-10
370
    50
100
AcDbLine
 10
3.733630289532227
 20
818.3182490105842
 30
0.0
 11
19.60863028953224
 21
834.1932490105843
 31
0.0
1001
REVIT
1002
{
1070
     2
1000
-2000260
1002
}
  0
LINE
  5
F9
330
FF
100
AcDbEntity
  8
A-----DIP-10
100
AcDbLine
 10
3.733630289532363
 20
824.8938893132571
 30
0.0
 11
3.733630289532363
 21
794.5057490105843
 31
0.0
1001
REVIT
1002
{
1070
     2
1000
-2000260
1002
}
  0
LINE
  5
FA
330
FF
100
AcDbEntity
  8
A-----DIP-10
100
AcDbLine
 10
3.733630289532227
 20
818.3182490105842
 30
0.0
 11
3.733630289532227
 21
884.0746520373132
 31
0.0
1001
REVIT
1002
{
1070
     2
1000
-2000260
1002
}
  0
MTEXT
  5
FB
330
FF
100
AcDbEntity
  8
A-----DIP-10
 62
     0
100
AcDbMText
 10
170.7874764433791
 20
856.636703927673
 30
0.0
 40
23.42037799401198
 41
56.27076923076923
 46
0.0
 71
     1
 72
     1
  1
\fArial|b0|i0|c0|p34|;EQ
 73
     2
 44
0.9385317878468562
 90
        3
 63
     7
 45
1.25
441
        0
1001
REVIT
1002
{
1070
     2
1000
-2000260
1002
}
  0
ENDBLK
  5
FD
330
FF
100
AcDbEntity
  8
0
100
AcDbBlockEnd
  0
BLOCK
  5
116
330
119
100
AcDbEntity
  8
0
100
AcDbBlockBegin
  2
DIMBLOCK4-Level 1
 70
     0
 10
0.0
 20
0.0
 30
0.0
  3
DIMBLOCK4-Level 1
  1

  0
LINE
  5
10C
330
119
100
AcDbEntity
  8
A-----DIP-10
100
AcDbLine
 10
384.7336302895336
 20
818.3182490105842
 30
0.0
 11
765.7336302895333
 21
818.3182490105842
 31
0.0
1001
REVIT
1002
{
1070
     2
1000
-2000260
1002
}
  0
LINE
  5
10D
330
119
100
AcDbEntity
  8
A-----DIP-10
370
    50
100
AcDbLine
 10
765.7336302895333
 20
818.3182490105842
 30
0.0
 11
749.8586302895333
 21
802.4432490105843
 31
0.0
1001
REVIT
1002
{
1070
     2
1000
-2000260
1002
}
  0
LINE
  5
10E
330
119
100
AcDbEntity
  8
A-----DIP-10
370
    50
100
AcDbLine
 10
765.7336302895333
 20
818.3182490105842
 30
0.0
 11
781.6086302895334
 21
834.1932490105843
 31
0.0
1001
REVIT
1002
{
1070
     2
1000
-2000260
1002
}
  0
LINE
  5
10F
330
119
100
AcDbEntity
  8
A-----DIP-10
100
AcDbLine
 10
765.7336302895333
 20
824.8938893132569
 30
0.0
 11
765.7336302895333
 21
794.5057490105843
 31
0.0
1001
REVIT
1002
{
1070
     2
1000
-2000260
1002
}
  0
LINE
  5
110
330
119
100
AcDbEntity
  8
A-----DIP-10
100
AcDbLine
 10
765.7336302895333
 20
818.3182490105842
 30
0.0
 11
765.7336302895333
 21
884.0746520373128
 31
0.0
1001
REVIT
1002
{
1070
     2
1000
-2000260
1002
}
  0
LINE
  5
111
330
119
100
AcDbEntity
  8
A-----DIP-10
370
    50
100
AcDbLine
 10
384.7336302895336
 20
818.3182490105842
 30
0.0
 11
368.8586302895335
 21
802.4432490105843
 31
0.0
1001
REVIT
1002
{
1070
     2
1000
-2000260
1002
}
  0
LINE
  5
112
330
119
100
AcDbEntity
  8
A-----DIP-10
370
    50
100
AcDbLine
 10
384.7336302895336
 20
818.3182490105842
 30
0.0
 11
400.6086302895337
 21
834.1932490105843
 31
0.0
1001
REVIT
1002
{
1070
     2
1000
-2000260
1002
}
  0
LINE
  5
113
330
119
100
AcDbEntity
  8
A-----DIP-10
100
AcDbLine
 10
384.7336302895336
 20
824.8938893132574
 30
0.0
 11
384.7336302895336
 21
794.5057490105843
 31
0.0
1001
REVIT
1002
{
1070
     2
1000
-2000260
1002
}
  0
LINE
  5
114
330
119
100
AcDbEntity
  8
A-----DIP-10
100
AcDbLine
 10
384.7336302895336
 20
818.3182490105842
 30
0.0
 11
384.7336302895336
 21
884.0746520373135
 31
0.0
1001
REVIT
1002
{
1070
     2
1000
-2000260
1002
}
  0
MTEXT
  5
115
330
119
100
AcDbEntity
  8
A-----DIP-10
 62
     0
100
AcDbMText
 10
551.7874764433797
 20
856.636703927673
 30
0.0
 40
23.42037799401198
 41
56.27076923076923
 46
0.0
 71
     1
 72
     1
  1
\fArial|b0|i0|c0|p34|;EQ
 73
     2
 44
0.9385317878468562
 90
        3
 63
     7
 45
1.25
441
        0
1001
REVIT
1002
{
1070
     2
1000
-2000260
1002
}
  0
ENDBLK
  5
117
330
119
100
AcDbEntity
  8
0
100
AcDbBlockEnd
  0
ENDSEC
  0
SECTION
  2
ENTITIES
  0
ARC
  5
80
330
6C
100
AcDbEntity
  8
0
 62
   251
370
    70
100
AcDbCircle
 10
714.9336302895436
 20
-177.7999999999999
 30
0.0
 40
50.80000000000001
100
AcDbArc
 50
269.9999999999993
 51
359.9999999999993
1001
REVIT
1002
{
1070
     1
1000
82
1002
}
  0
LINE
  5
81
330
6C
100
AcDbEntity
  8
0
 62
   251
370
    70
100
AcDbLine
 10
765.7336302895437
 20
-177.7999999999999
 30
0.0
 11
765.7336302895437
 21
482.6000000000002
 31
0.0
1001
REVIT
1002
{
1070
     1
1000
82
1002
}
  0
ARC
  5
82
330
6C
100
AcDbEntity
  8
0
 62
   251
370
    70
100
AcDbCircle
 10
714.9336302895437
 20
482.6000000000002
 30
0.0
 40
50.79999999999991
100
AcDbArc
 50
359.9999999999988
 51
89.99999999999939
1001
REVIT
1002
{
1070
     1
1000
82
1002
}
  0
LINE
  5
83
330
6C
100
AcDbEntity
  8
0
 62
   251
370
    70
100
AcDbLine
 10
714.9336302895441
 20
533.3999999999999
 30
0.0
 11
54.53363028952744
 21
533.3999999999999
 31
0.0
1001
REVIT
1002
{
1070
     1
1000
82
1002
}
  0
ARC
  5
84
330
6C
100
AcDbEntity
  8
0
 62
   251
370
    70
100
AcDbCircle
 10
54.53363028952748
 20
482.5999999999997
 30
0.0
 40
50.80000000000014
100
AcDbArc
 50
90.0
 51
180.0000000000001
1001
REVIT
1002
{
1070
     1
1000
82
1002
}
  0
LINE
  5
85
330
6C
100
AcDbEntity
  8
0
 62
   251
370
    70
100
AcDbLine
 10
3.733630289527219
 20
482.5999999999999
 30
0.0
 11
3.733630289527219
 21
-177.8000000000002
 31
0.0
1001
REVIT
1002
{
1070
     1
1000
82
1002
}
  0
ARC
  5
86
330
6C
100
AcDbEntity
  8
0
 62
   251
370
    70
100
AcDbCircle
 10
54.53363028952721
 20
-177.7999999999998
 30
0.0
 40
50.80000000000003
100
AcDbArc
 50
180.0
 51
269.9999999999993
1001
REVIT
1002
{
1070
     1
1000
82
1002
}
  0
LINE
  5
87
330
6C
100
AcDbEntity
  8
0
 62
   251
370
    70
100
AcDbLine
 10
54.53363028952717
 20
-228.5999999999999
 30
0.0
 11
714.9336302895436
 21
-228.6
 31
0.0
1001
REVIT
1002
{
1070
     1
1000
82
1002
}
  0
LINE
  5
88
330
6C
100
AcDbEntity
  8
0
 62
   251
370
    70
100
AcDbLine
 10
714.9336302895436
 20
-228.6
 30
0.0
 11
54.53363028952717
 21
-228.5999999999999
 31
0.0
1001
REVIT
1002
{
1070
     1
1000
82
1002
}
  0
ARC
  5
89
330
6C
100
AcDbEntity
  8
0
 62
   251
370
    70
100
AcDbCircle
 10
54.53363028952721
 20
-177.7999999999998
 30
0.0
 40
50.80000000000008
100
AcDbArc
 50
180.0000000000003
 51
269.9999999999997
1001
REVIT
1002
{
1070
     1
1000
82
1002
}
  0
LINE
  5
8A
330
6C
100
AcDbEntity
  8
0
 62
   251
370
    70
100
AcDbLine
 10
3.733630289527219
 20
-177.8000000000002
 30
0.0
 11
3.733630289527219
 21
482.5999999999998
 31
0.0
1001
REVIT
1002
{
1070
     1
1000
82
1002
}
  0
ARC
  5
8B
330
6C
100
AcDbEntity
  8
0
 62
   251
370
    70
100
AcDbCircle
 10
54.53363028952748
 20
482.5999999999997
 30
0.0
 40
50.80000000000016
100
AcDbArc
 50
90.00000000000039
 51
180.0000000000004
1001
REVIT
1002
{
1070
     1
1000
82
1002
}
  0
LINE
  5
8C
330
6C
100
AcDbEntity
  8
0
 62
   251
370
    70
100
AcDbLine
 10
54.53363028952744
 20
533.3999999999999
 30
0.0
 11
714.9336302895441
 21
533.3999999999999
 31
0.0
1001
REVIT
1002
{
1070
     1
1000
82
1002
}
  0
ARC
  5
8D
330
6C
100
AcDbEntity
  8
0
 62
   251
370
    70
100
AcDbCircle
 10
714.9336302895437
 20
482.6000000000002
 30
0.0
 40
50.79999999999995
100
AcDbArc
 50
359.9999999999992
 51
89.99999999999971
1001
REVIT
1002
{
1070
     1
1000
82
1002
}
  0
LINE
  5
8E
330
6C
100
AcDbEntity
  8
0
 62
   251
370
    70
100
AcDbLine
 10
765.7336302895437
 20
482.6000000000002
 30
0.0
 11
765.7336302895437
 21
-177.7999999999999
 31
0.0
1001
REVIT
1002
{
1070
     1
1000
82
1002
}
  0
ARC
  5
8F
330
6C
100
AcDbEntity
  8
0
 62
   251
370
    70
100
AcDbCircle
 10
714.9336302895436
 20
-177.7999999999999
 30
0.0
 40
50.80000000000004
100
AcDbArc
 50
269.9999999999996
 51
0.0000000000000572
1001
REVIT
1002
{
1070
     1
1000
82
1002
}
  0
ARC
  5
90
330
6C
100
AcDbEntity
  8
0
 62
   251
370
    70
100
AcDbCircle
 10
79.93363028952721
 20
457.2
 30
0.0
 40
38.10000000000004
100
AcDbArc
 50
179.9999999999998
 51
0.0000000000000509
1001
REVIT
1002
{
1070
     1
1000
614
1002
}
  0
ARC
  5
91
330
6C
100
AcDbEntity
  8
0
 62
   251
370
    70
100
AcDbCircle
 10
79.93363028952721
 20
457.2
 30
0.0
 40
38.10000000000003
100
AcDbArc
 50
359.9999999999996
 51
179.9999999999998
1001
REVIT
1002
{
1070
     1
1000
614
1002
}
  0
ARC
  5
92
330
6C
100
AcDbEntity
  8
0
 62
   251
370
    70
100
AcDbCircle
 10
79.9336302895272
 20
-152.3999999999999
 30
0.0
 40
38.09999999999999
100
AcDbArc
 50
179.9999999999997
 51
359.9999999999994
1001
REVIT
1002
{
1070
     1
1000
614
1002
}
  0
ARC
  5
93
330
6C
100
AcDbEntity
  8
0
 62
   251
370
    70
100
AcDbCircle
 10
79.9336302895272
 20
-152.4
 30
0.0
 40
38.09999999999997
100
AcDbArc
 50
359.9999999999992
 51
179.9999999999994
1001
REVIT
1002
{
1070
     1
1000
614
1002
}
  0
ARC
  5
94
330
6C
100
AcDbEntity
  8
0
 62
   251
370
    70
100
AcDbCircle
 10
689.5336302895437
 20
-152.3999999999999
 30
0.0
 40
38.09999999999998
100
AcDbArc
 50
179.9999999999996
 51
359.9999999999995
1001
REVIT
1002
{
1070
     1
1000
614
1002
}
  0
ARC
  5
95
330
6C
100
AcDbEntity
  8
0
 62
   251
370
    70
100
AcDbCircle
 10
689.5336302895437
 20
-152.4
 30
0.0
 40
38.09999999999985
100
AcDbArc
 50
359.9999999999992
 51
179.9999999999994
1001
REVIT
1002
{
1070
     1
1000
614
1002
}
  0
ARC
  5
96
330
6C
100
AcDbEntity
  8
0
 62
   251
370
    70
100
AcDbCircle
 10
689.5336302895437
 20
457.2
 30
0.0
 40
38.10000000000036
100
AcDbArc
 50
179.9999999999998
 51
359.9999999999995
1001
REVIT
1002
{
1070
     1
1000
614
1002
}
  0
ARC
  5
97
330
6C
100
AcDbEntity
  8
0
 62
   251
370
    70
100
AcDbCircle
 10
689.5336302895437
 20
457.1999999999999
 30
0.0
 40
38.10000000000025
100
AcDbArc
 50
0.0
 51
179.9999999999997
1001
REVIT
1002
{
1070
     1
1000
614
1002
}
  0
ARC
  5
98
330
6C
100
AcDbEntity
  8
0
 62
   251
370
    70
100
AcDbCircle
 10
79.93363028952721
 20
457.2
 30
0.0
 40
38.1
100
AcDbArc
 50
0.0000000000003292
 51
180.0000000000002
1001
REVIT
1002
{
1070
     1
1000
614
1002
}
  0
ARC
  5
99
330
6C
100
AcDbEntity
  8
0
 62
   251
370
    70
100
AcDbCircle
 10
79.93363028952721
 20
457.2
 30
0.0
 40
38.09999999999995
100
AcDbArc
 50
180.0000000000004
 51
0.0000000000005598
1001
REVIT
1002
{
1070
     1
1000
614
1002
}
  0
ARC
  5
9A
330
6C
100
AcDbEntity
  8
0
 62
   251
370
    70
100
AcDbCircle
 10
79.9336302895272
 20
-152.4
 30
0.0
 40
38.09999999999993
100
AcDbArc
 50
359.9999999999996
 51
179.9999999999999
1001
REVIT
1002
{
1070
     1
1000
614
1002
}
  0
ARC
  5
9B
330
6C
100
AcDbEntity
  8
0
 62
   251
370
    70
100
AcDbCircle
 10
79.9336302895272
 20
-152.3999999999999
 30
0.0
 40
38.09999999999993
100
AcDbArc
 50
180.0000000000001
 51
0.0000000000003053
1001
REVIT
1002
{
1070
     1
1000
614
1002
}
  0
ARC
  5
9C
330
6C
100
AcDbEntity
  8
0
 62
   251
370
    70
100
AcDbCircle
 10
689.5336302895437
 20
-152.4
 30
0.0
 40
38.09999999999983
100
AcDbArc
 50
0.0000000000000254
 51
179.9999999999999
1001
REVIT
1002
{
1070
     1
1000
614
1002
}
  0
ARC
  5
9D
330
6C
100
AcDbEntity
  8
0
 62
   251
370
    70
100
AcDbCircle
 10
689.5336302895437
 20
-152.3999999999999
 30
0.0
 40
38.0999999999998
100
AcDbArc
 50
179.9999999999997
 51
0.0000000000003419
1001
REVIT
1002
{
1070
     1
1000
614
1002
}
  0
ARC
  5
9E
330
6C
100
AcDbEntity
  8
0
 62
   251
370
    70
100
AcDbCircle
 10
689.5336302895437
 20
457.1999999999999
 30
0.0
 40
38.10000000000036
100
AcDbArc
 50
0.0000000000004274
 51
179.9999999999998
1001
REVIT
1002
{
1070
     1
1000
614
1002
}
  0
ARC
  5
9F
330
6C
100
AcDbEntity
  8
0
 62
   251
370
    70
100
AcDbCircle
 10
689.5336302895437
 20
457.2
 30
0.0
 40
38.10000000000022
100
AcDbArc
 50
180.0000000000003
 51
0.0000000000003053
1001
REVIT
1002
{
1070
     1
1000
614
1002
}
  0
LINE
  5
A2
330
6C
100
AcDbEntity
  8
I-DETLFUM
100
AcDbLine
 10
714.9336302895439
 20
533.4000000000001
 30
0.0
 11
54.53363028952974
 21
533.4000000000001
 31
0.0
1001
REVIT
1002
{
1070
     1
1000
6663
1002
}
1002
{
1070
     2
1000
-2000080
1002
}
  0
ARC
  5
A3
330
6C
100
AcDbEntity
  8
I-DETLFUM
100
AcDbCircle
 10
54.53363028951377
 20
482.5999999999996
 30
0.0
 40
50.80000000000004
100
AcDbArc
 50
89.99999999999998
 51
179.9999999999998
1001
REVIT
1002
{
1070
     1
1000
6663
1002
}
1002
{
1070
     2
1000
-2000080
1002
}
  0
LINE
  5
A4
330
6C
100
AcDbEntity
  8
I-DETLFUM
100
AcDbLine
 10
3.733630289532363
 20
482.5999999999996
 30
0.0
 11
3.733630289532363
 21
-177.8000000000002
 31
0.0
1001
REVIT
1002
{
1070
     1
1000
6663
1002
}
1002
{
1070
     2
1000
-2000080
1002
}
  0
ARC
  5
A5
330
6C
100
AcDbEntity
  8
I-DETLFUM
100
AcDbCircle
 10
54.53363028950119
 20
-177.8
 30
0.0
 40
50.79999999999993
100
AcDbArc
 50
180.0000000000004
 51
269.9999999999997
1001
REVIT
1002
{
1070
     1
1000
6663
1002
}
1002
{
1070
     2
1000
-2000080
1002
}
  0
LINE
  5
A6
330
6C
100
AcDbEntity
  8
I-DETLFUM
100
AcDbLine
 10
54.53363028952298
 20
-228.5999999999998
 30
0.0
 11
714.9336302895257
 21
-228.5999999999998
 31
0.0
1001
REVIT
1002
{
1070
     1
1000
6663
1002
}
1002
{
1070
     2
1000
-2000080
1002
}
  0
ARC
  5
A7
330
6C
100
AcDbEntity
  8
I-DETLFUM
100
AcDbCircle
 10
714.9336302895244
 20
-177.8000000000002
 30
0.0
 40
50.79999999999991
100
AcDbArc
 50
269.9999999999995
 51
0.0000000000002036
1001
REVIT
1002
{
1070
     1
1000
6663
1002
}
1002
{
1070
     2
1000
-2000080
1002
}
  0
LINE
  5
A8
330
6C
100
AcDbEntity
  8
I-DETLFUM
100
AcDbLine
 10
765.7336302895328
 20
-177.8000000000001
 30
0.0
 11
765.7336302895328
 21
482.6
 31
0.0
1001
REVIT
1002
{
1070
     1
1000
6663
1002
}
1002
{
1070
     2
1000
-2000080
1002
}
  0
ARC
  5
A9
330
6C
100
AcDbEntity
  8
I-DETLFUM
100
AcDbCircle
 10
714.9336302895338
 20
482.6000000000001
 30
0.0
 40
50.79999999999984
100
AcDbArc
 50
359.9999999999994
 51
90.0000000000004
1001
REVIT
1002
{
1070
     1
1000
6663
1002
}
1002
{
1070
     2
1000
-2000080
1002
}
  0
LINE
  5
AC
330
6C
100
AcDbEntity
  8
G-----NPP
100
AcDbLine
 10
890.2357533443181
 20
152.4
 30
0.0
 11
-170.7627449769929
 21
152.4
 31
0.0
1001
REVIT
1002
{
1070
     1
1000
46
1002
}
1002
{
1070
     2
1000
-2000530
1002
}
  0
LINE
  5
AD
330
6C
100
AcDbEntity
  8
G-----NPP
100
AcDbLine
 10
3.733630289532363
 20
934.2956574904651
 30
0.0
 11
3.733630289532295
 21
-265.5925396878159
 31
0.0
1001
REVIT
1002
{
1070
     1
1000
48
1002
}
1002
{
1070
     2
1000
-2000530
1002
}
  0
LINE
  5
AE
330
6C
100
AcDbEntity
  8
G-----NPP
100
AcDbLine
 10
765.7336302895315
 20
-265.592539687815
 30
0.0
 11
765.7336302895335
 21
934.2956574904638
 31
0.0
1001
REVIT
1002
{
1070
     1
1000
1083
1002
}
1002
{
1070
     2
1000
-2000530
1002
}
  0
LINE
  5
AF
330
6C
100
AcDbEntity
  8
G-----NPP
100
AcDbLine
 10
-213.655708729658
 20
533.4000000000001
 30
0.0
 11
890.2357533443181
 21
533.4000000000001
 31
0.0
1001
REVIT
1002
{
1070
     1
1000
1084
1002
}
1002
{
1070
     2
1000
-2000530
1002
}
  0
LINE
  5
B0
330
6C
100
AcDbEntity
  8
G-----NPP
100
AcDbLine
 10
890.2357533443181
 20
-228.5999999999998
 30
0.0
 11
-170.7627449769929
 21
-228.5999999999998
 31
0.0
1001
REVIT
1002
{
1070
     1
1000
1085
1002
}
1002
{
1070
     2
1000
-2000530
1002
}
  0
DIMENSION
  5
C6
330
6C
100
AcDbEntity
  8
A-----DIP
100
AcDbDimension
280
     0
  2
DIMBLOCK1-Level 1
 10
1441.901395812481
 20
-228.6
 30
0.0
 11
1422.006083376903
 21
152.4000000000002
 31
0.0
 70
    32
 71
     5
 42
761.9999999999999
 73
     0
 74
     0
 75
     0
  3
Linear
100
AcDbAlignedDimension
 13
890.2357533443181
 23
533.4000000000001
 33
0.0
 14
890.2357533443181
 24
-228.5999999999998
 34
0.0
 50
89.99999999999991
100
AcDbRotatedDimension
1001
ACAD
1000
DSTYLE
1002
{
1070
     3
1000
Width = <>
1070
    49
1040
761.9999999999999
1002
}
1001
REVIT
1002
{
1070
     1
1000
4224
1002
}
1002
{
1070
     5
1000
0
1002
}
1002
{
1070
     2
1000
-2000260
1002
}
  0
DIMENSION
  5
E2
330
6C
100
AcDbEntity
  8
A-----DIP
100
AcDbDimension
280
     0
  2
DIMBLOCK2-Level 1
 10
765.7336302895335
 20
1027.931971630411
 30
0.0
 11
384.7336302895329
 21
1051.070351433286
 31
0.0
 70
    32
 71
     5
 42
762.0000000000011
 73
     0
 74
     0
 75
     0
  3
Linear
100
AcDbAlignedDimension
 13
3.733630289532363
 23
934.2956574904651
 33
0.0
 14
765.7336302895335
 24
934.2956574904638
 34
0.0
100
AcDbRotatedDimension
1001
ACAD
1000
DSTYLE
1002
{
1070
     3
1000
Length = <>
1070
    49
1040
762.0000000000011
1002
}
1001
REVIT
1002
{
1070
     1
1000
4240
1002
}
1002
{
1070
     5
1000
0
1002
}
1002
{
1070
     2
1000
-2000260
1002
}
  0
LINE
  5
EF
330
6C
100
AcDbEntity
  8
G-----NPP
100
AcDbLine
 10
384.7336302895316
 20
-428.3558425814923
 30
0.0
 11
384.7336302895337
 21
923.8060567606831
 31
0.0
1001
REVIT
1002
{
1070
     1
1000
4588
1002
}
1002
{
1070
     2
1000
-2000530
1002
}
  0
DIMENSION
  5
FE
330
6C
100
AcDbEntity
  8
A-----DIP
100
AcDbDimension
280
     0
  2
DIMBLOCK3-Level 1
 10
384.7336302895336
 20
818.3182490105842
 30
0.0
 11
194.2336302895329
 21
910.5217371679241
 31
0.0
 70
    32
  1
EQ
 71
     5
 42
381.0000000000014
 73
     0
 74
     0
 75
     0
  3
Linear_1
100
AcDbAlignedDimension
 13
3.733630289532227
 23
1042.824652037313
 33
0.0
 14
384.7336302895336
 24
1042.824652037313
 34
0.0
100
AcDbRotatedDimension
1001
ACAD
1000
DSTYLE
1002
{
1070
    49
1040
381.0000000000014
1002
}
1001
REVIT
1002
{
1070
     1
1000
4618
1002
}
1002
{
1070
     5
1000
0
1002
}
1002
{
1070
     2
1000
-2000260
1002
}
  0
DIMENSION
  5
118
330
6C
100
AcDbEntity
  8
A-----DIP
100
AcDbDimension
280
     0
  2
DIMBLOCK4-Level 1
 10
765.7336302895333
 20
818.3182490105842
 30
0.0
 11
575.2336302895335
 21
910.5217371679241
 31
0.0
 70
    32
  1
EQ
 71
     5
 42
380.9999999999998
 73
     0
 74
     0
 75
     0
  3
Linear_1
100
AcDbAlignedDimension
 13
384.7336302895336
 23
1042.824652037313
 33
0.0
 14
765.7336302895333
 24
1042.824652037313
 34
0.0
100
AcDbRotatedDimension
1001
ACAD
1000
DSTYLE
1002
{
1070
    49
1040
380.9999999999998
1002
}
1001
REVIT
1002
{
1070
     1
1000
4618
1002
}
1002
{
1070
     5
1000
0
1002
}
1002
{
1070
     2
1000
-2000260
1002
}
  0
ENDSEC
  0
SECTION
  2
OBJECTS
  0
DICTIONARY
  5
C
330
0
100
AcDbDictionary
281
     1
  3
ACAD_CIP_PREVIOUS_PRODUCT_INFO
350
75
  3
ACAD_COLOR
350
63
  3
ACAD_GROUP
350
D
  3
ACAD_IMAGE_VARS
350
76
  3
ACAD_LAYOUT
350
62
  3
ACAD_MATERIAL
350
10
  3
ACAD_MLEADERSTYLE
350
66
  3
ACAD_MLINESTYLE
350
5F
  3
ACAD_PLOTSETTINGS
350
61
  3
ACAD_PLOTSTYLENAME
350
E
  3
ACAD_SCALELIST
350
42
  3
ACAD_TABLESTYLE
350
64
  3
ACAD_VISUALSTYLE
350
29
  3
ACDB_RECOMPOSE_DATA
350
131
  3
AcDbVariableDictionary
350
77
  3
REVIT_DICTIONARY
350
125
  0
SUN
  5
12C
330
57
100
AcDbSun
 90
        1
290
     1
 63
     7
421
 16777215
 40
0.3
291
     1
 91
  2455474
 92
 45896000
292
     0
 70
     1
 71
   128
280
     1
  0
DICTIONARY
  5
129
330
6C
100
AcDbDictionary
280
     1
281
     1
  3
ACAD_SORTENTS
360
12A
  0
XRECORD
  5
75
102
{ACAD_REACTORS
330
C
102
}
330
C
100
AcDbXrecord
280
     1
300
REVIT
300
2012
300
REVIT2012
  0
DICTIONARY
  5
63
102
{ACAD_REACTORS
330
C
102
}
330
C
100
AcDbDictionary
281
     1
  0
DICTIONARY
  5
D
102
{ACAD_REACTORS
330
C
102
}
330
C
100
AcDbDictionary
281
     1
  0
RASTERVARIABLES
  5
76
102
{ACAD_REACTORS
330
C
102
}
330
C
100
AcDbRasterVariables
 90
        0
 70
     0
 71
     1
 72
     1
  0
DICTIONARY
  5
62
102
{ACAD_REACTORS
330
C
102
}
330
C
100
AcDbDictionary
281
     1
  3
Layout1
350
6B
  3
Layout2
350
73
  3
Model
350
6F
  0
DICTIONARY
  5
10
102
{ACAD_REACTORS
330
C
102
}
330
C
100
AcDbDictionary
281
     1
  3
ByBlock
350
19
  3
ByLayer
350
11
  3
Global
350
21
  0
DICTIONARY
  5
66
102
{ACAD_REACTORS
330
C
102
}
330
C
100
AcDbDictionary
281
     1
  3
Standard
350
67
  0
DICTIONARY
  5
5F
102
{ACAD_REACTORS
330
C
102
}
330
C
100
AcDbDictionary
281
     1
  3
Standard
350
60
  0
DICTIONARY
  5
61
102
{ACAD_REACTORS
330
C
102
}
330
C
100
AcDbDictionary
281
     1
  0
ACDBDICTIONARYWDFLT
  5
E
102
{ACAD_REACTORS
330
C
102
}
330
C
100
AcDbDictionary
281
     1
  3
Normal
350
F
100
AcDbDictionaryWithDefault
340
F
  0
DICTIONARY
  5
42
102
{ACAD_REACTORS
330
C
102
}
330
C
100
AcDbDictionary
281
     1
  3
A0
350
43
  3
A1
350
44
  3
A2
350
45
  3
A3
350
46
  3
A4
350
47
  3
A5
350
48
  3
A6
350
49
  3
A7
350
4A
  3
A8
350
4B
  3
A9
350
4C
  3
B0
350
4D
  3
B1
350
4E
  3
B2
350
4F
  3
B3
350
50
  3
B4
350
51
  3
B5
350
52
  3
B6
350
53
  0
DICTIONARY
  5
64
102
{ACAD_REACTORS
330
C
102
}
330
C
100
AcDbDictionary
281
     1
  3
Standard
350
65
  0
DICTIONARY
  5
29
102
{ACAD_REACTORS
330
C
102
}
330
C
100
AcDbDictionary
281
     1
  3
2dWireframe
350
2F
  3
Basic
350
2E
  3
Brighten
350
35
  3
ColorChange
350
39
  3
Conceptual
350
32
  3
Dim
350
34
  3
EdgeColorOff
350
41
  3
Facepattern
350
38
  3
Flat
350
2A
  3
FlatWithEdges
350
2B
  3
Gouraud
350
2C
  3
GouraudWithEdges
350
2D
  3
Hidden
350
31
  3
JitterOff
350
3F
  3
Linepattern
350
37
  3
OverhangOff
350
40
  3
Realistic
350
33
  3
Shaded
350
3E
  3
Shaded with edges
350
3D
  3
Shades of Gray
350
3A
  3
Sketchy
350
3B
  3
Thicken
350
36
  3
Wireframe
350
30
  3
X-Ray
350
3C
  0
XRECORD
  5
131
102
{ACAD_REACTORS
330
C
102
}
330
C
100
AcDbXrecord
280
     1
 90
        1
330
65
  0
DICTIONARY
  5
77
102
{ACAD_REACTORS
330
C
102
}
330
C
100
AcDbDictionary
281
     1
  3
CANNOSCALE
350
7A
  3
CMLEADERSTYLE
350
79
  3
CTABLESTYLE
350
78
  0
DICTIONARY
  5
125
102
{ACAD_REACTORS
330
C
102
}
330
C
100
AcDbDictionary
281
     1
  3
DRAWING_TOOL
350
128
  3
REVIT_CATEGORY_MAPPING
350
127
  3
REVIT_TYPE_MAPPING
350
126
  0
SORTENTSTABLE
  5
12A
102
{ACAD_REACTORS
330
129
102
}
330
129
100
AcDbSortentsTable
330
6C
  0
LAYOUT
  5
6B
102
{ACAD_REACTORS
330
62
102
}
330
62
100
AcDbPlotSettings
  1

  2

  4

  6

 40
0.0
 41
0.0
 42
0.0
 43
0.0
 44
0.0
 45
0.0
 46
0.0
 47
0.0
 48
0.0
 49
0.0
140
0.0
141
0.0
142
1.0
143
1.0
 70
   688
 72
     0
 73
     0
 74
     5
  7

 75
    16
147
1.0
 76
     0
 77
     2
 78
   300
148
0.0
149
0.0
100
AcDbLayout
  1
Layout1
 70
     1
 71
     1
 10
0.0
 20
0.0
 11
12.0
 21
9.0
 12
0.0
 22
0.0
 32
0.0
 14
0.0
 24
0.0
 34
0.0
 15
0.0
 25
0.0
 35
0.0
146
0.0
 13
0.0
 23
0.0
 33
0.0
 16
1.0
 26
0.0
 36
0.0
 17
0.0
 27
1.0
 37
0.0
 76
     0
330
68
  0
LAYOUT
  5
73
102
{ACAD_REACTORS
330
62
102
}
330
62
100
AcDbPlotSettings
  1

  2

  4

  6

 40
0.0
 41
0.0
 42
0.0
 43
0.0
 44
0.0
 45
0.0
 46
0.0
 47
0.0
 48
0.0
 49
0.0
140
0.0
141
0.0
142
1.0
143
1.0
 70
   688
 72
     0
 73
     0
 74
     5
  7

 75
    16
147
1.0
 76
     0
 77
     2
 78
   300
148
0.0
149
0.0
100
AcDbLayout
  1
Layout2
 70
     1
 71
     2
 10
0.0
 20
0.0
 11
12.0
 21
9.0
 12
0.0
 22
0.0
 32
0.0
 14
0.0
 24
0.0
 34
0.0
 15
0.0
 25
0.0
 35
0.0
146
0.0
 13
0.0
 23
0.0
 33
0.0
 16
1.0
 26
0.0
 36
0.0
 17
0.0
 27
1.0
 37
0.0
 76
     0
330
70
  0
LAYOUT
  5
6F
102
{ACAD_REACTORS
330
62
102
}
330
62
100
AcDbPlotSettings
  1

  2

  4

  6

 40
0.0
 41
0.0
 42
0.0
 43
0.0
 44
0.0
 45
0.0
 46
0.0
 47
0.0
 48
0.0
 49
0.0
140
0.0
141
0.0
142
1.0
143
1.0
 70
  1712
 72
     0
 73
     0
 74
     0
  7

 75
     0
147
1.0
 76
     0
 77
     2
 78
   300
148
0.0
149
0.0
100
AcDbLayout
  1
Model
 70
     1
 71
     0
 10
0.0
 20
0.0
 11
12.0
 21
9.0
 12
0.0
 22
0.0
 32
0.0
 14
0.0
 24
0.0
 34
0.0
 15
0.0
 25
0.0
 35
0.0
146
0.0
 13
0.0
 23
0.0
 33
0.0
 16
1.0
 26
0.0
 36
0.0
 17
0.0
 27
1.0
 37
0.0
 76
     0
330
6C
  0
MATERIAL
  5
19
102
{ACAD_XDICTIONARY
360
1A
102
}
102
{ACAD_REACTORS
330
10
102
}
330
10
100
AcDbMaterial
  1
ByBlock
 72
     0
 43
0.0208333333333333
 43
0.0
 43
0.0
 43
0.0
 43
0.0
 43
0.0208333333333333
 43
0.0
 43
0.0
 43
0.0
 43
0.0
 43
1.0
 43
0.0
 43
0.0
 43
0.0
 43
0.0
 43
1.0
 77
     0
 47
0.0208333333333333
 47
0.0
 47
0.0
 47
0.0
 47
0.0
 47
0.0208333333333333
 47
0.0
 47
0.0
 47
0.0
 47
0.0
 47
1.0
 47
0.0
 47
0.0
 47
0.0
 47
0.0
 47
1.0
171
     0
 49
0.0208333333333333
 49
0.0
 49
0.0
 49
0.0
 49
0.0
 49
0.0208333333333333
 49
0.0
 49
0.0
 49
0.0
 49
0.0
 49
1.0
 49
0.0
 49
0.0
 49
0.0
 49
0.0
 49
1.0
175
     0
142
0.0208333333333333
142
0.0
142
0.0
142
0.0
142
0.0
142
0.0208333333333333
142
0.0
142
0.0
142
0.0
142
0.0
142
1.0
142
0.0
142
0.0
142
0.0
142
0.0
142
1.0
179
     0
144
0.0208333333333333
144
0.0
144
0.0
144
0.0
144
0.0
144
0.0208333333333333
144
0.0
144
0.0
144
0.0
144
0.0
144
1.0
144
0.0
144
0.0
144
0.0
144
0.0
144
1.0
147
0.0208333333333333
147
0.0
147
0.0
147
0.0
147
0.0
147
0.0208333333333333
147
0.0
147
0.0
147
0.0
147
0.0
147
1.0
147
0.0
147
0.0
147
0.0
147
0.0
147
1.0
  0
MATERIAL
  5
11
102
{ACAD_XDICTIONARY
360
12
102
}
102
{ACAD_REACTORS
330
10
102
}
330
10
100
AcDbMaterial
  1
ByLayer
 72
     0
 43
0.0208333333333333
 43
0.0
 43
0.0
 43
0.0
 43
0.0
 43
0.0208333333333333
 43
0.0
 43
0.0
 43
0.0
 43
0.0
 43
1.0
 43
0.0
 43
0.0
 43
0.0
 43
0.0
 43
1.0
 77
     0
 47
0.0208333333333333
 47
0.0
 47
0.0
 47
0.0
 47
0.0
 47
0.0208333333333333
 47
0.0
 47
0.0
 47
0.0
 47
0.0
 47
1.0
 47
0.0
 47
0.0
 47
0.0
 47
0.0
 47
1.0
171
     0
 49
0.0208333333333333
 49
0.0
 49
0.0
 49
0.0
 49
0.0
 49
0.0208333333333333
 49
0.0
 49
0.0
 49
0.0
 49
0.0
 49
1.0
 49
0.0
 49
0.0
 49
0.0
 49
0.0
 49
1.0
175
     0
142
0.0208333333333333
142
0.0
142
0.0
142
0.0
142
0.0
142
0.0208333333333333
142
0.0
142
0.0
142
0.0
142
0.0
142
1.0
142
0.0
142
0.0
142
0.0
142
0.0
142
1.0
179
     0
144
0.0208333333333333
144
0.0
144
0.0
144
0.0
144
0.0
144
0.0208333333333333
144
0.0
144
0.0
144
0.0
144
0.0
144
1.0
144
0.0
144
0.0
144
0.0
144
0.0
144
1.0
147
0.0208333333333333
147
0.0
147
0.0
147
0.0
147
0.0
147
0.0208333333333333
147
0.0
147
0.0
147
0.0
147
0.0
147
1.0
147
0.0
147
0.0
147
0.0
147
0.0
147
1.0
  0
MATERIAL
  5
21
102
{ACAD_XDICTIONARY
360
22
102
}
102
{ACAD_REACTORS
330
10
102
}
330
10
100
AcDbMaterial
  1
Global
 72
     0
 43
0.0208333333333333
 43
0.0
 43
0.0
 43
0.0
 43
0.0
 43
0.0208333333333333
 43
0.0
 43
0.0
 43
0.0
 43
0.0
 43
1.0
 43
0.0
 43
0.0
 43
0.0
 43
0.0
 43
1.0
 77
     0
 47
0.0208333333333333
 47
0.0
 47
0.0
 47
0.0
 47
0.0
 47
0.0208333333333333
 47
0.0
 47
0.0
 47
0.0
 47
0.0
 47
1.0
 47
0.0
 47
0.0
 47
0.0
 47
0.0
 47
1.0
171
     0
 49
0.0208333333333333
 49
0.0
 49
0.0
 49
0.0
 49
0.0
 49
0.0208333333333333
 49
0.0
 49
0.0
 49
0.0
 49
0.0
 49
1.0
 49
0.0
 49
0.0
 49
0.0
 49
0.0
 49
1.0
175
     0
142
0.0208333333333333
142
0.0
142
0.0
142
0.0
142
0.0
142
0.0208333333333333
142
0.0
142
0.0
142
0.0
142
0.0
142
1.0
142
0.0
142
0.0
142
0.0
142
0.0
142
1.0
179
     0
144
0.0208333333333333
144
0.0
144
0.0
144
0.0
144
0.0
144
0.0208333333333333
144
0.0
144
0.0
144
0.0
144
0.0
144
1.0
144
0.0
144
0.0
144
0.0
144
0.0
144
1.0
147
0.0208333333333333
147
0.0
147
0.0
147
0.0
147
0.0
147
0.0208333333333333
147
0.0
147
0.0
147
0.0
147
0.0
147
1.0
147
0.0
147
0.0
147
0.0
147
0.0
147
1.0
  0
MLEADERSTYLE
  5
67
102
{ACAD_XDICTIONARY
360
12F
102
}
102
{ACAD_REACTORS
330
66
102
}
330
66
100
AcDbMLeaderStyle
179
     2
170
     2
171
     1
172
     0
 90
        2
 40
0.0
 41
0.0
173
     1
 91
-1056964608
340
5B
 92
       -2
290
     1
 42
0.09
291
     1
 43
0.36
  3
Standard
 44
0.18
300

342
55
174
     1
178
     6
175
     1
176
     0
 93
-1056964608
 45
0.18
292
     0
297
     0
 46
0.18
 94
-1056964608
 47
1.0
 49
1.0
140
1.0
293
     1
141
0.0
294
     1
177
     0
142
1.0
295
     0
296
     0
143
0.125
271
     0
272
     9
273
     9
  0
MLINESTYLE
  5
60
102
{ACAD_REACTORS
330
5F
102
}
330
5F
100
AcDbMlineStyle
  2
STANDARD
 70
     0
  3

 62
   256
 51
90.0
 52
90.0
 71
     2
 49
0.5
 62
   256
  6
BYLAYER
 49
-0.5
 62
   256
  6
BYLAYER
  0
ACDBPLACEHOLDER
  5
F
102
{ACAD_REACTORS
330
E
102
}
330
E
  0
SCALE
  5
43
102
{ACAD_REACTORS
330
42
102
}
330
42
100
AcDbScale
 70
     0
300
1:1
140
1.0
141
1.0
290
     1
  0
SCALE
  5
44
102
{ACAD_REACTORS
330
42
102
}
330
42
100
AcDbScale
 70
     0
300
1/128" = 1'-0"
140
0.0078125
141
12.0
290
     0
  0
SCALE
  5
45
102
{ACAD_REACTORS
330
42
102
}
330
42
100
AcDbScale
 70
     0
300
1/64" = 1'-0"
140
0.015625
141
12.0
290
     0
  0
SCALE
  5
46
102
{ACAD_REACTORS
330
42
102
}
330
42
100
AcDbScale
 70
     0
300
1/32" = 1'-0"
140
0.03125
141
12.0
290
     0
  0
SCALE
  5
47
102
{ACAD_REACTORS
330
42
102
}
330
42
100
AcDbScale
 70
     0
300
1/16" = 1'-0"
140
0.0625
141
12.0
290
     0
  0
SCALE
  5
48
102
{ACAD_REACTORS
330
42
102
}
330
42
100
AcDbScale
 70
     0
300
3/32" = 1'-0"
140
0.09375
141
12.0
290
     0
  0
SCALE
  5
49
102
{ACAD_REACTORS
330
42
102
}
330
42
100
AcDbScale
 70
     0
300
1/8" = 1'-0"
140
0.125
141
12.0
290
     0
  0
SCALE
  5
4A
102
{ACAD_REACTORS
330
42
102
}
330
42
100
AcDbScale
 70
     0
300
3/16" = 1'-0"
140
0.1875
141
12.0
290
     0
  0
SCALE
  5
4B
102
{ACAD_REACTORS
330
42
102
}
330
42
100
AcDbScale
 70
     0
300
1/4" = 1'-0"
140
0.25
141
12.0
290
     0
  0
SCALE
  5
4C
102
{ACAD_REACTORS
330
42
102
}
330
42
100
AcDbScale
 70
     0
300
3/8" = 1'-0"
140
0.375
141
12.0
290
     0
  0
SCALE
  5
4D
102
{ACAD_REACTORS
330
42
102
}
330
42
100
AcDbScale
 70
     0
300
1/2" = 1'-0"
140
0.5
141
12.0
290
     0
  0
SCALE
  5
4E
102
{ACAD_REACTORS
330
42
102
}
330
42
100
AcDbScale
 70
     0
300
3/4" = 1'-0"
140
0.75
141
12.0
290
     0
  0
SCALE
  5
4F
102
{ACAD_REACTORS
330
42
102
}
330
42
100
AcDbScale
 70
     0
300
1" = 1'-0"
140
1.0
141
12.0
290
     0
  0
SCALE
  5
50
102
{ACAD_REACTORS
330
42
102
}
330
42
100
AcDbScale
 70
     0
300
1-1/2" = 1'-0"
140
1.5
141
12.0
290
     0
  0
SCALE
  5
51
102
{ACAD_REACTORS
330
42
102
}
330
42
100
AcDbScale
 70
     0
300
3" = 1'-0"
140
3.0
141
12.0
290
     0
  0
SCALE
  5
52
102
{ACAD_REACTORS
330
42
102
}
330
42
100
AcDbScale
 70
     0
300
6" = 1'-0"
140
6.0
141
12.0
290
     0
  0
SCALE
  5
53
102
{ACAD_REACTORS
330
42
102
}
330
42
100
AcDbScale
 70
     0
300
1'-0" = 1'-0"
140
12.0
141
12.0
290
     0
  0
TABLESTYLE
  5
65
102
{ACAD_XDICTIONARY
360
12D
102
}
102
{ACAD_REACTORS
330
64
102
}
330
64
100
AcDbTableStyle
280
     0
  3
Standard
 70
     0
 71
     0
 40
0.06
 41
0.06
280
     0
281
     0
  7
Standard
140
0.18
170
     2
 62
     0
 63
     7
283
     0
 90
      512
 91
        0
  1

274
    -2
284
     1
 64
     0
275
    -2
285
     1
 65
     0
276
    -2
286
     1
 66
     0
277
    -2
287
     1
 67
     0
278
    -2
288
     1
 68
     0
279
    -2
289
     1
 69
     0
  7
Standard
140
0.25
170
     5
 62
     0
 63
     7
283
     0
 90
      512
 91
        0
  1

274
    -2
284
     1
 64
     0
275
    -2
285
     1
 65
     0
276
    -2
286
     1
 66
     0
277
    -2
287
     1
 67
     0
278
    -2
288
     1
 68
     0
279
    -2
289
     1
 69
     0
  7
Standard
140
0.18
170
     5
 62
     0
 63
     7
283
     0
 90
      512
 91
        0
  1

274
    -2
284
     1
 64
     0
275
    -2
285
     1
 65
     0
276
    -2
286
     1
 66
     0
277
    -2
287
     1
 67
     0
278
    -2
288
     1
 68
     0
279
    -2
289
     1
 69
     0
  0
VISUALSTYLE
  5
2F
102
{ACAD_REACTORS
330
29
102
}
330
29
100
AcDbVisualStyle
  2
2dWireframe
 70
     4
177
     2
291
     0
 71
     0
176
     1
 72
     2
176
     1
 73
     0
176
     1
 90
        0
176
     1
 40
0.6
176
     1
 41
30.0
176
     1
 63
     7
421
 16777215
176
     1
 74
     1
176
     1
 91
        4
176
     1
 64
     7
176
     1
 65
   257
176
     1
 75
     1
176
     1
175
     1
176
     1
 42
1.0
176
     1
 92
        0
176
     1
 66
   257
176
     1
 43
1.0
176
     1
 76
     1
176
     1
 77
     6
176
     1
 78
     2
176
     1
 67
     7
176
     1
 79
     5
176
     1
170
     0
176
     1
171
     0
176
     1
290
     0
176
     1
 93
        1
176
     1
 44
0.0
176
     1
173
     0
176
     1
  0
VISUALSTYLE
  5
2E
102
{ACAD_REACTORS
330
29
102
}
330
29
100
AcDbVisualStyle
  2
Basic
 70
     7
177
     2
291
     1
 71
     1
176
     1
 72
     0
176
     1
 73
     1
176
     1
 90
        0
176
     1
 40
0.6
176
     1
 41
30.0
176
     1
 63
     7
421
 16777215
176
     1
 74
     0
176
     1
 91
        4
176
     1
 64
     7
176
     1
 65
   257
176
     1
 75
     1
176
     1
175
     1
176
     1
 42
1.0
176
     1
 92
        8
176
     1
 66
     7
176
     1
 43
1.0
176
     1
 76
     1
176
     1
 77
     6
176
     1
 78
     2
176
     1
 67
     7
176
     1
 79
     5
176
     1
170
     0
176
     1
171
     0
176
     1
290
     0
176
     1
 93
        1
176
     1
 44
0.0
176
     1
173
     0
176
     1
  0
VISUALSTYLE
  5
35
102
{ACAD_REACTORS
330
29
102
}
330
29
100
AcDbVisualStyle
  2
Brighten
 70
    12
177
     2
291
     1
 71
     2
176
     1
 72
     2
176
     1
 73
     0
176
     1
 90
        0
176
     1
 40
0.6
176
     1
 41
30.0
176
     1
 63
     7
421
 16777215
176
     1
 74
     1
176
     1
 91
        4
176
     1
 64
     7
176
     1
 65
   257
176
     1
 75
     1
176
     1
175
     1
176
     1
 42
1.0
176
     1
 92
        8
176
     1
 66
     7
176
     1
 43
1.0
176
     1
 76
     1
176
     1
 77
     6
176
     1
 78
     2
176
     1
 67
     7
176
     1
 79
     5
176
     1
170
     0
176
     1
171
     0
176
     1
290
     0
176
     1
 93
        1
176
     1
 44
50.0
176
     1
173
     0
176
     1
  0
VISUALSTYLE
  5
39
102
{ACAD_REACTORS
330
29
102
}
330
29
100
AcDbVisualStyle
  2
ColorChange
 70
    16
177
     2
291
     1
 71
     2
176
     1
 72
     2
176
     1
 73
     3
176
     1
 90
        0
176
     1
 40
0.6
176
     1
 41
30.0
176
     1
 63
     8
421
  8421504
176
     1
 74
     1
176
     1
 91
        4
176
     1
 64
     7
176
     1
 65
   257
176
     1
 75
     1
176
     1
175
     1
176
     1
 42
1.0
176
     1
 92
        8
176
     1
 66
     8
424
  8421504
176
     1
 43
1.0
176
     1
 76
     1
176
     1
 77
     6
176
     1
 78
     2
176
     1
 67
     7
176
     1
 79
     5
176
     1
170
     0
176
     1
171
     0
176
     1
290
     0
176
     1
 93
        1
176
     1
 44
0.0
176
     1
173
     0
176
     1
  0
VISUALSTYLE
  5
32
102
{ACAD_REACTORS
330
29
102
}
330
29
100
AcDbVisualStyle
  2
Conceptual
 70
     9
177
     2
291
     0
 71
     3
176
     1
 72
     2
176
     1
 73
     0
176
     1
 90
        0
176
     1
 40
0.6
176
     1
 41
30.0
176
     1
 63
     7
421
 16777215
176
     1
 74
     2
176
     1
 91
        2
176
     1
 64
     7
176
     1
 65
   257
176
     1
 75
     1
176
     1
175
     1
176
     1
 42
179.0
176
     1
 92
        8
176
     1
 66
     7
176
     1
 43
1.0
176
     1
 76
     1
176
     1
 77
     6
176
     1
 78
     2
176
     1
 67
     7
176
     1
 79
     3
176
     1
170
     0
176
     1
171
     0
176
     1
290
     0
176
     1
 93
        1
176
     1
 44
0.0
176
     1
173
     0
176
     1
  0
VISUALSTYLE
  5
34
102
{ACAD_REACTORS
330
29
102
}
330
29
100
AcDbVisualStyle
  2
Dim
 70
    11
177
     2
291
     1
 71
     2
176
     1
 72
     2
176
     1
 73
     0
176
     1
 90
        0
176
     1
 40
0.6
176
     1
 41
30.0
176
     1
 63
     7
421
 16777215
176
     1
 74
     1
176
     1
 91
        4
176
     1
 64
     7
176
     1
 65
   257
176
     1
 75
     1
176
     1
175
     1
176
     1
 42
1.0
176
     1
 92
        8
176
     1
 66
     7
176
     1
 43
1.0
176
     1
 76
     1
176
     1
 77
     6
176
     1
 78
     2
176
     1
 67
     7
176
     1
 79
     5
176
     1
170
     0
176
     1
171
     0
176
     1
290
     0
176
     1
 93
        1
176
     1
 44
-50.0
176
     1
173
     0
176
     1
  0
VISUALSTYLE
  5
41
102
{ACAD_REACTORS
330
29
102
}
330
29
100
AcDbVisualStyle
  2
EdgeColorOff
 70
    22
177
     2
291
     1
 71
     2
176
     0
 72
     2
176
     0
 73
     0
176
     0
 90
        0
176
     0
 40
0.6
176
     0
 41
30.0
176
     0
 63
     7
421
 16777215
176
     0
 74
     1
176
     0
 91
        4
176
     0
 64
     7
176
     0
 65
   257
176
     0
 75
     1
176
     0
175
     1
176
     0
 42
1.0
176
     0
 92
        8
176
     2
 66
     7
176
     0
 43
1.0
176
     0
 76
     1
176
     0
 77
     6
176
     0
 78
     2
176
     0
 67
     7
176
     0
 79
     5
176
     0
170
     0
176
     0
171
     0
176
     0
290
     0
176
     0
 93
        1
176
     0
 44
0.0
176
     0
173
     0
176
     0
  0
VISUALSTYLE
  5
38
102
{ACAD_REACTORS
330
29
102
}
330
29
100
AcDbVisualStyle
  2
Facepattern
 70
    15
177
     2
291
     1
 71
     2
176
     1
 72
     2
176
     1
 73
     0
176
     1
 90
        0
176
     1
 40
0.6
176
     1
 41
30.0
176
     1
 63
     7
421
 16777215
176
     1
 74
     1
176
     1
 91
        4
176
     1
 64
     7
176
     1
 65
   257
176
     1
 75
     1
176
     1
175
     1
176
     1
 42
1.0
176
     1
 92
        8
176
     1
 66
     7
176
     1
 43
1.0
176
     1
 76
     1
176
     1
 77
     6
176
     1
 78
     2
176
     1
 67
     7
176
     1
 79
     5
176
     1
170
     0
176
     1
171
     0
176
     1
290
     0
176
     1
 93
        1
176
     1
 44
0.0
176
     1
173
     0
176
     1
  0
VISUALSTYLE
  5
2A
102
{ACAD_REACTORS
330
29
102
}
330
29
100
AcDbVisualStyle
  2
Flat
 70
     0
177
     2
291
     1
 71
     2
176
     1
 72
     1
176
     1
 73
     1
176
     1
 90
        2
176
     1
 40
0.6
176
     1
 41
30.0
176
     1
 63
     7
421
 16777215
176
     1
 74
     0
176
     1
 91
        0
176
     1
 64
     7
176
     1
 65
   257
176
     1
 75
     1
176
     1
175
     1
176
     1
 42
1.0
176
     1
 92
        8
176
     1
 66
     7
176
     1
 43
1.0
176
     1
 76
     1
176
     1
 77
     6
176
     1
 78
     2
176
     1
 67
     7
176
     1
 79
     5
176
     1
170
     0
176
     1
171
     0
176
     1
290
     0
176
     1
 93
       13
176
     1
 44
0.0
176
     1
173
     0
176
     1
  0
VISUALSTYLE
  5
2B
102
{ACAD_REACTORS
330
29
102
}
330
29
100
AcDbVisualStyle
  2
FlatWithEdges
 70
     1
177
     2
291
     1
 71
     2
176
     1
 72
     1
176
     1
 73
     1
176
     1
 90
        2
176
     1
 40
0.6
176
     1
 41
30.0
176
     1
 63
     7
421
 16777215
176
     1
 74
     1
176
     1
 91
        0
176
     1
 64
     7
176
     1
 65
   257
176
     1
 75
     1
176
     1
175
     1
176
     1
 42
1.0
176
     1
 92
        0
176
     1
 66
   257
176
     1
 43
1.0
176
     1
 76
     1
176
     1
 77
     6
176
     1
 78
     2
176
     1
 67
     7
176
     1
 79
     5
176
     1
170
     0
176
     1
171
     0
176
     1
290
     0
176
     1
 93
       13
176
     1
 44
0.0
176
     1
173
     0
176
     1
  0
VISUALSTYLE
  5
2C
102
{ACAD_REACTORS
330
29
102
}
330
29
100
AcDbVisualStyle
  2
Gouraud
 70
     2
177
     2
291
     1
 71
     2
176
     1
 72
     2
176
     1
 73
     1
176
     1
 90
        2
176
     1
 40
0.6
176
     1
 41
30.0
176
     1
 63
     7
421
 16777215
176
     1
 74
     0
176
     1
 91
        0
176
     1
 64
     7
176
     1
 65
   257
176
     1
 75
     1
176
     1
175
     1
176
     1
 42
1.0
176
     1
 92
        0
176
     1
 66
     7
176
     1
 43
1.0
176
     1
 76
     1
176
     1
 77
     6
176
     1
 78
     2
176
     1
 67
     7
176
     1
 79
     5
176
     1
170
     0
176
     1
171
     0
176
     1
290
     0
176
     1
 93
       13
176
     1
 44
0.0
176
     1
173
     0
176
     1
  0
VISUALSTYLE
  5
2D
102
{ACAD_REACTORS
330
29
102
}
330
29
100
AcDbVisualStyle
  2
GouraudWithEdges
 70
     3
177
     2
291
     1
 71
     2
176
     1
 72
     2
176
     1
 73
     1
176
     1
 90
        2
176
     1
 40
0.6
176
     1
 41
30.0
176
     1
 63
     7
421
 16777215
176
     1
 74
     1
176
     1
 91
        0
176
     1
 64
     7
176
     1
 65
   257
176
     1
 75
     1
176
     1
175
     1
176
     1
 42
1.0
176
     1
 92
        0
176
     1
 66
   257
176
     1
 43
1.0
176
     1
 76
     1
176
     1
 77
     6
176
     1
 78
     2
176
     1
 67
     7
176
     1
 79
     5
176
     1
170
     0
176
     1
171
     0
176
     1
290
     0
176
     1
 93
       13
176
     1
 44
0.0
176
     1
173
     0
176
     1
  0
VISUALSTYLE
  5
31
102
{ACAD_REACTORS
330
29
102
}
330
29
100
AcDbVisualStyle
  2
Hidden
 70
     6
177
     2
291
     0
 71
     1
176
     1
 72
     2
176
     1
 73
     2
176
     1
 90
        0
176
     1
 40
0.6
176
     1
 41
30.0
176
     1
 63
     7
421
 16777215
176
     1
 74
     2
176
     1
 91
        2
176
     1
 64
     7
176
     1
 65
   257
176
     1
 75
     2
176
     1
175
     1
176
     1
 42
40.0
176
     1
 92
        0
176
     1
 66
   257
176
     1
 43
1.0
176
     1
 76
     1
176
     1
 77
     6
176
     1
 78
     2
176
     1
 67
     7
176
     1
 79
     3
176
     1
170
     0
176
     1
171
     0
176
     1
290
     0
176
     1
 93
        1
176
     1
 44
0.0
176
     1
173
     0
176
     1
  0
VISUALSTYLE
  5
3F
102
{ACAD_REACTORS
330
29
102
}
330
29
100
AcDbVisualStyle
  2
JitterOff
 70
    20
177
     2
291
     1
 71
     2
176
     0
 72
     2
176
     0
 73
     0
176
     0
 90
        0
176
     0
 40
0.6
176
     0
 41
30.0
176
     0
 63
     7
421
 16777215
176
     0
 74
     1
176
     0
 91
        4
176
     0
 64
     7
176
     0
 65
   257
176
     0
 75
     1
176
     0
175
     1
176
     0
 42
1.0
176
     0
 92
       10
176
     2
 66
     7
176
     0
 43
1.0
176
     0
 76
     1
176
     0
 77
     6
176
     0
 78
     2
176
     0
 67
     7
176
     0
 79
     5
176
     0
170
     0
176
     0
171
     0
176
     0
290
     0
176
     0
 93
        1
176
     0
 44
0.0
176
     0
173
     0
176
     0
  0
VISUALSTYLE
  5
37
102
{ACAD_REACTORS
330
29
102
}
330
29
100
AcDbVisualStyle
  2
Linepattern
 70
    14
177
     2
291
     1
 71
     2
176
     1
 72
     2
176
     1
 73
     0
176
     1
 90
        0
176
     1
 40
0.6
176
     1
 41
30.0
176
     1
 63
     7
421
 16777215
176
     1
 74
     1
176
     1
 91
        4
176
     1
 64
     7
176
     1
 65
   257
176
     1
 75
     7
176
     1
175
     7
176
     1
 42
1.0
176
     1
 92
        8
176
     1
 66
     7
176
     1
 43
1.0
176
     1
 76
     1
176
     1
 77
     6
176
     1
 78
     2
176
     1
 67
     7
176
     1
 79
     5
176
     1
170
     0
176
     1
171
     0
176
     1
290
     0
176
     1
 93
        1
176
     1
 44
0.0
176
     1
173
     0
176
     1
  0
VISUALSTYLE
  5
40
102
{ACAD_REACTORS
330
29
102
}
330
29
100
AcDbVisualStyle
  2
OverhangOff
 70
    21
177
     2
291
     1
 71
     2
176
     0
 72
     2
176
     0
 73
     0
176
     0
 90
        0
176
     0
 40
0.6
176
     0
 41
30.0
176
     0
 63
     7
421
 16777215
176
     0
 74
     1
176
     0
 91
        4
176
     0
 64
     7
176
     0
 65
   257
176
     0
 75
     1
176
     0
175
     1
176
     0
 42
1.0
176
     0
 92
        9
176
     2
 66
     7
176
     0
 43
1.0
176
     0
 76
     1
176
     0
 77
     6
176
     0
 78
     2
176
     0
 67
     7
176
     0
 79
     5
176
     0
170
     0
176
     0
171
     0
176
     0
290
     0
176
     0
 93
        1
176
     0
 44
0.0
176
     0
173
     0
176
     0
  0
VISUALSTYLE
  5
33
102
{ACAD_REACTORS
330
29
102
}
330
29
100
AcDbVisualStyle
  2
Realistic
 70
     8
177
     2
291
     0
 71
     2
176
     1
 72
     3
176
     1
 73
     0
176
     1
 90
        2
176
     1
 40
0.6
176
     1
 41
30.0
176
     1
 63
     7
421
 16777215
176
     1
 74
     0
176
     1
 91
        0
176
     1
 64
     7
176
     1
 65
   257
176
     1
 75
     1
176
     1
175
     1
176
     1
 42
1.0
176
     1
 92
        8
176
     1
 66
   257
176
     1
 43
1.0
176
     1
 76
     1
176
     1
 77
     6
176
     1
 78
     2
176
     1
 67
     7
176
     1
 79
     3
176
     1
170
     0
176
     1
171
     0
176
     1
290
     0
176
     1
 93
       13
176
     1
 44
0.0
176
     1
173
     0
176
     1
  0
VISUALSTYLE
  5
3E
102
{ACAD_REACTORS
330
29
102
}
330
29
100
AcDbVisualStyle
  2
Shaded
 70
    27
177
     2
291
     0
 71
     2
176
     1
 72
     2
176
     1
 73
     1
176
     1
 90
        2
176
     1
 40
0.6
176
     1
 41
30.0
176
     1
 63
     7
421
 16777215
176
     1
 74
     0
176
     1
 91
        4
176
     1
 64
     7
176
     1
 65
   257
176
     1
 75
     1
176
     1
175
     1
176
     1
 42
1.0
176
     1
 92
        8
176
     1
 66
   257
176
     1
 43
1.0
176
     1
 76
     1
176
     1
 77
     6
176
     1
 78
     2
176
     1
 67
     8
425
  7895160
176
     1
 79
     3
176
     1
170
     0
176
     1
171
     0
176
     1
290
     0
176
     1
 93
        5
176
     1
 44
0.0
176
     1
173
     0
176
     1
  0
VISUALSTYLE
  5
3D
102
{ACAD_REACTORS
330
29
102
}
330
29
100
AcDbVisualStyle
  2
Shaded with edges
 70
    26
177
     2
291
     0
 71
     2
176
     1
 72
     2
176
     1
 73
     1
176
     1
 90
        2
176
     1
 40
0.6
176
     1
 41
30.0
176
     1
 63
     7
421
 16777215
176
     1
 74
     1
176
     1
 91
       10
176
     1
 64
     7
176
     1
 65
   257
176
     1
 75
     2
176
     1
175
     1
176
     1
 42
1.0
176
     1
 92
        8
176
     1
 66
   257
176
     1
 43
1.0
176
     1
 76
     1
176
     1
 77
     6
176
     1
 78
     2
176
     1
 67
     7
176
     1
 79
     3
176
     1
170
     0
176
     1
171
     0
176
     1
290
     0
176
     1
 93
        5
176
     1
 44
0.0
176
     1
173
     0
176
     1
  0
VISUALSTYLE
  5
3A
102
{ACAD_REACTORS
330
29
102
}
330
29
100
AcDbVisualStyle
  2
Shades of Gray
 70
    23
177
     2
291
     0
 71
     2
176
     1
 72
     2
176
     1
 73
     3
176
     1
 90
        0
176
     1
 40
0.6
176
     1
 41
30.0
176
     1
 63
     7
421
 16777215
176
     1
 74
     2
176
     1
 91
        2
176
     1
 64
     7
176
     1
 65
     7
176
     1
 75
     1
176
     1
175
     1
176
     1
 42
40.0
176
     1
 92
        8
176
     1
 66
     7
176
     1
 43
1.0
176
     1
 76
     1
176
     1
 77
     6
176
     1
 78
     2
176
     1
 67
     7
176
     1
 79
     3
176
     1
170
     0
176
     1
171
     0
176
     1
290
     0
176
     1
 93
        1
176
     1
 44
0.0
176
     1
173
     0
176
     1
  0
VISUALSTYLE
  5
3B
102
{ACAD_REACTORS
330
29
102
}
330
29
100
AcDbVisualStyle
  2
Sketchy
 70
    24
177
     2
291
     0
 71
     1
176
     1
 72
     2
176
     1
 73
     2
176
     1
 90
        0
176
     1
 40
0.6
176
     1
 41
30.0
176
     1
 63
     7
421
 16777215
176
     1
 74
     2
176
     1
 91
        2
176
     1
 64
     7
176
     1
 65
     7
176
     1
 75
     1
176
     1
175
     1
176
     1
 42
40.0
176
     1
 92
       11
176
     1
 66
     7
176
     1
 43
1.0
176
     1
 76
     1
176
     1
 77
     6
176
     1
 78
     2
176
     1
 67
     7
176
     1
 79
     6
176
     1
170
     0
176
     1
171
     0
176
     1
290
     0
176
     1
 93
        1
176
     1
 44
0.0
176
     1
173
     0
176
     1
  0
VISUALSTYLE
  5
36
102
{ACAD_REACTORS
330
29
102
}
330
29
100
AcDbVisualStyle
  2
Thicken
 70
    13
177
     2
291
     1
 71
     2
176
     1
 72
     2
176
     1
 73
     0
176
     1
 90
        0
176
     1
 40
0.6
176
     1
 41
30.0
176
     1
 63
     7
421
 16777215
176
     1
 74
     1
176
     1
 91
        4
176
     1
 64
     7
176
     1
 65
   257
176
     1
 75
     1
176
     1
175
     1
176
     1
 42
1.0
176
     1
 92
       12
176
     1
 66
     7
176
     1
 43
1.0
176
     1
 76
     1
176
     1
 77
     6
176
     1
 78
     2
176
     1
 67
     7
176
     1
 79
     5
176
     1
170
     0
176
     1
171
     0
176
     1
290
     0
176
     1
 93
        1
176
     1
 44
0.0
176
     1
173
     0
176
     1
  0
VISUALSTYLE
  5
30
102
{ACAD_REACTORS
330
29
102
}
330
29
100
AcDbVisualStyle
  2
Wireframe
 70
     5
177
     2
291
     0
 71
     0
176
     1
 72
     2
176
     1
 73
     0
176
     1
 90
        0
176
     1
 40
0.6
176
     1
 41
30.0
176
     1
 63
     7
421
 16777215
176
     1
 74
     1
176
     1
 91
        4
176
     1
 64
     7
176
     1
 65
   257
176
     1
 75
     1
176
     1
175
     1
176
     1
 42
1.0
176
     1
 92
        0
176
     1
 66
   257
176
     1
 43
1.0
176
     1
 76
     1
176
     1
 77
     6
176
     1
 78
     2
176
     1
 67
     7
176
     1
 79
     3
176
     1
170
     0
176
     1
171
     0
176
     1
290
     0
176
     1
 93
        1
176
     1
 44
0.0
176
     1
173
     0
176
     1
  0
VISUALSTYLE
  5
3C
102
{ACAD_REACTORS
330
29
102
}
330
29
100
AcDbVisualStyle
  2
X-Ray
 70
    25
177
     2
291
     0
 71
     2
176
     1
 72
     2
176
     1
 73
     1
176
     1
 90
        1
176
     1
 40
0.5
176
     1
 41
30.0
176
     1
 63
     7
421
 16777215
176
     1
 74
     1
176
     1
 91
        0
176
     1
 64
     7
176
     1
 65
   257
176
     1
 75
     1
176
     1
175
     1
176
     1
 42
1.0
176
     1
 92
        8
176
     1
 66
     7
176
     1
 43
1.0
176
     1
 76
     1
176
     1
 77
     6
176
     1
 78
     2
176
     1
 67
     7
176
     1
 79
     3
176
     1
170
     0
176
     1
171
     0
176
     1
290
     0
176
     1
 93
       13
176
     1
 44
0.0
176
     1
173
     0
176
     1
  0
DICTIONARYVAR
  5
7A
102
{ACAD_REACTORS
330
77
102
}
330
77
100
DictionaryVariables
280
     0
  1
1:1
  0
DICTIONARYVAR
  5
79
102
{ACAD_REACTORS
330
77
102
}
330
77
100
DictionaryVariables
280
     0
  1
STANDARD
  0
DICTIONARYVAR
  5
78
102
{ACAD_REACTORS
330
77
102
}
330
77
100
DictionaryVariables
280
     0
  1
STANDARD
  0
XRECORD
  5
128
102
{ACAD_REACTORS
330
125
102
}
330
125
100
AcDbXrecord
280
     1
  1
BUILDING_ID
  1
rac_basic_sample_family
  1
FLOOR_ID
  1
7054
  0
XRECORD
  5
127
102
{ACAD_REACTORS
330
125
102
}
330
125
100
AcDbXrecord
280
     1
  1
-2000080
  1
Arredi
  1
-2000260
  1
Quote
  1
-2000530
  1
Piani di riferimento
  0
XRECORD
  5
126
102
{ACAD_REACTORS
330
125
102
}
330
125
100
AcDbXrecord
280
     1
  1
0
  1
Stile di quota lineare : Linear
  0
DICTIONARY
  5
1A
330
19
100
AcDbDictionary
280
     1
281
     1
  3
BUMPTILE
360
1C
  3
DIFFUSETILE
360
1B
  3
OPACITYTILE
360
1F
  3
REFLECTIONTILE
360
1E
  3
REFRACTIONTILE
360
20
  3
SPECULARTILE
360
1D
  0
DICTIONARY
  5
12
330
11
100
AcDbDictionary
280
     1
281
     1
  3
BUMPTILE
360
14
  3
DIFFUSETILE
360
13
  3
OPACITYTILE
360
17
  3
REFLECTIONTILE
360
16
  3
REFRACTIONTILE
360
18
  3
SPECULARTILE
360
15
  0
DICTIONARY
  5
22
330
21
100
AcDbDictionary
280
     1
281
     1
  3
BUMPTILE
360
24
  3
DIFFUSETILE
360
23
  3
OPACITYTILE
360
27
  3
REFLECTIONTILE
360
26
  3
REFRACTIONTILE
360
28
  3
SPECULARTILE
360
25
  0
DICTIONARY
  5
12F
330
67
100
AcDbDictionary
280
     1
281
     1
  3
ACAD_XREC_ROUNDTRIP
360
130
  0
DICTIONARY
  5
12D
330
65
100
AcDbDictionary
280
     1
281
     1
  3
ACAD_ROUNDTRIP_2008_TABLESTYLE_CELLSTYLEMAP
360
12E
  0
XRECORD
  5
1C
102
{ACAD_REACTORS
330
1A
102
}
330
1A
100
AcDbXrecord
280
     1
270
     1
271
     1
  0
XRECORD
  5
1B
102
{ACAD_REACTORS
330
1A
102
}
330
1A
100
AcDbXrecord
280
     1
270
     1
271
     1
  0
XRECORD
  5
1F
102
{ACAD_REACTORS
330
1A
102
}
330
1A
100
AcDbXrecord
280
     1
270
     1
271
     1
  0
XRECORD
  5
1E
102
{ACAD_REACTORS
330
1A
102
}
330
1A
100
AcDbXrecord
280
     1
270
     1
271
     1
  0
XRECORD
  5
20
102
{ACAD_REACTORS
330
1A
102
}
330
1A
100
AcDbXrecord
280
     1
270
     1
271
     1
  0
XRECORD
  5
1D
102
{ACAD_REACTORS
330
1A
102
}
330
1A
100
AcDbXrecord
280
     1
270
     1
271
     1
  0
XRECORD
  5
14
102
{ACAD_REACTORS
330
12
102
}
330
12
100
AcDbXrecord
280
     1
270
     1
271
     1
  0
XRECORD
  5
13
102
{ACAD_REACTORS
330
12
102
}
330
12
100
AcDbXrecord
280
     1
270
     1
271
     1
  0
XRECORD
  5
17
102
{ACAD_REACTORS
330
12
102
}
330
12
100
AcDbXrecord
280
     1
270
     1
271
     1
  0
XRECORD
  5
16
102
{ACAD_REACTORS
330
12
102
}
330
12
100
AcDbXrecord
280
     1
270
     1
271
     1
  0
XRECORD
  5
18
102
{ACAD_REACTORS
330
12
102
}
330
12
100
AcDbXrecord
280
     1
270
     1
271
     1
  0
XRECORD
  5
15
102
{ACAD_REACTORS
330
12
102
}
330
12
100
AcDbXrecord
280
     1
270
     1
271
     1
  0
XRECORD
  5
24
102
{ACAD_REACTORS
330
22
102
}
330
22
100
AcDbXrecord
280
     1
270
     1
271
     1
  0
XRECORD
  5
23
102
{ACAD_REACTORS
330
22
102
}
330
22
100
AcDbXrecord
280
     1
270
     1
271
     1
  0
XRECORD
  5
27
102
{ACAD_REACTORS
330
22
102
}
330
22
100
AcDbXrecord
280
     1
270
     1
271
     1
  0
XRECORD
  5
26
102
{ACAD_REACTORS
330
22
102
}
330
22
100
AcDbXrecord
280
     1
270
     1
271
     1
  0
XRECORD
  5
28
102
{ACAD_REACTORS
330
22
102
}
330
22
100
AcDbXrecord
280
     1
270
     1
271
     1
  0
XRECORD
  5
25
102
{ACAD_REACTORS
330
22
102
}
330
22
100
AcDbXrecord
280
     1
270
     1
271
     1
  0
XRECORD
  5
130
102
{ACAD_REACTORS
330
12F
102
}
330
12F
100
AcDbXrecord
280
     1
102
ACAD_ROUNDTRIP_2012_MLEADER_STYLE
298
     1
  0
CELLSTYLEMAP
  5
12E
102
{ACAD_REACTORS
330
12D
102
}
330
12D
100
AcDbCellStyleMap
 90
        3
300
CELLSTYLE
  1
TABLEFORMAT_BEGIN
 90
        5
170
     1
 91
        0
 92
    32768
 62
   257
 93
        1
300
CONTENTFORMAT
  1
CONTENTFORMAT_BEGIN
 90
        0
 91
        0
 92
      512
 93
        0
300

 40
0.0
140
1.0
 94
        5
 62
     0
340
55
144
0.25
309
CONTENTFORMAT_END
171
     0
 94
        0
309
TABLEFORMAT_END
  1
CELLSTYLE_BEGIN
 90
        1
 91
        1
300
_TITLE
309
CELLSTYLE_END
300
CELLSTYLE
  1
TABLEFORMAT_BEGIN
 90
        5
170
     1
 91
        0
 92
        0
 62
   257
 93
        1
300
CONTENTFORMAT
  1
CONTENTFORMAT_BEGIN
 90
        0
 91
        0
 92
      512
 93
        0
300

 40
0.0
140
1.0
 94
        5
 62
     0
340
55
144
0.18
309
CONTENTFORMAT_END
171
     0
 94
        0
309
TABLEFORMAT_END
  1
CELLSTYLE_BEGIN
 90
        2
 91
        1
300
_HEADER
309
CELLSTYLE_END
300
CELLSTYLE
  1
TABLEFORMAT_BEGIN
 90
        5
170
     1
 91
        0
 92
        0
 62
   257
 93
        1
300
CONTENTFORMAT
  1
CONTENTFORMAT_BEGIN
 90
        0
 91
        0
 92
      512
 93
        0
300

 40
0.0
140
1.0
 94
        2
 62
     0
340
55
144
0.18
309
CONTENTFORMAT_END
171
     0
 94
        0
309
TABLEFORMAT_END
  1
CELLSTYLE_BEGIN
 90
        3
 91
        2
300
_DATA
309
CELLSTYLE_END
  0
ENDSEC
  0
EOF
